Loading...
Error

Скачать Блеск / Shine (Скотт Хикс / Scott Hicks) [1996, драма, мелодрама, биография, HDRip] [AVO] (Ю.Сербин) + [Sub (Rus)] торрент без регистрации

 
Статистика раздачи
Размер:  1,46 GB   |    Скачан:  102 раза
Сидов:  1  [  0 KB/s  ]  
 
Автор Сообщение

leon030982

[] 

Блеск / Shine

Слоган: «A true story of the mystery of music and the miracle of love»


Год выпуска: 1996
Страна: Австралия
Жанр: драма, мелодрама, биография, музыка
Продолжительность: 01:45:15
Перевод: Авторский (одноголосый) [Юрий Сербин]
субтитры: русские, английские внешние, srt

Режиссер: Скотт Хикс / Scott Hicks
Сценарий: Скотт Хикс / Scott Hicks, Ян Сарди / Jan Sardi
Продюсер: Джейн Скотт / Jane Scott
Оператор: Джефри Симпсон / Geoffrey Simpson
Композитор: Дэвид Хиршфелдер / David Hirschfelder, Фредерик Шопен / Frédéric Chopin, Ференц Лист / Franz Liszt, Никколо Паганини / Niccolò Paganini, Сергей Рахманинов / Sergei Rachmaninov

В ролях: Джеффри Раш (David as an Adult), Ноа Тейлор (David as an Adolescent), Армин Мюллер-Шталь (Peter), Джастин Брейн (Tony), Соня Тодд (Sylvia), Крис Хейвуд (Sam), Алекс Рафалович (David as a Child), Гордон Пул (Eisteddfod Presenter), Николас Белл (Ben Rosen), Даниэль Кокс (Suzie as a child), Ребекка Гуден (Margaret), Марта Качмарек (Rachel)

Описание: Безрадостное детство под властью деспотичного отца. Юность, полная надежд и разочарований. Учеба в лучшей музыкальной школе мира, первые успехи и, наконец, всемирная слава. Вот лишь некоторые страницы из жизни одного из лучших пианистов современности Дэвида Хэлфготта, который прошел через тяжелые лишения и титанический труд, чтобы достичь вершин своего мастерства.

kinopoisk.ru: 8.134 (819)
imdb.com: 7.60 (23 278)
MPAA: PG-13 - Детям до 13 лет просмотр не желателен
Качество: HDRip
Формат видео: AVI
Видео кодек: XviD
Аудио кодек: АС3
Видео: 688x384 (1.79:1), 23.976 fps, XviD MPEG-4 ~1336 kbps avg, 0.21 bit/pixel
Аудио 1: 48 kHz, AC3 Dolby Digital, 3/2 (L,C,R,l,r) + LFE ch, ~448.00 kbps avg Ю. Сербин
Аудио 2: 48 kHz, AC3 Dolby Digital, 2/0 (L,R) ch, ~192.00 kbps avg оригинал
Джеффри Раш сам играл в фильме на пианино.
Фильм основан на реальных событиях. В финальных титрах авторы выражают благодарность Дэвиду Хельфготту.
General
Complete name : E:\INTERNET\Shine\Shine.avi
Format : AVI
Format/Info : Audio Video Interleave
File size : 1.46 GiB
Duration : 1h 45mn
Overall bit rate : 1 990 Kbps
Writing application : VirtualDubMod 1.5.10.2 (build 2540/release)
Writing library : VirtualDubMod build 2540/release

Video
ID : 0
Format : MPEG-4 Visual
Format profile : Advanced Simple@L5
Format settings, BVOP : 2
Format settings, QPel : No
Format settings, GMC : No warppoints
Format settings, Matrix : Custom
Codec ID : XVID
Codec ID/Hint : XviD
Duration : 1h 45mn
Bit rate : 1 336 Kbps
Width : 688 pixels
Height : 384 pixels
Display aspect ratio : 16:9
Frame rate : 23.976 fps
Color space : YUV
Chroma subsampling : 4:2:0
Bit depth : 8 bits
Scan type : Progressive
Compression mode : Lossy
Bits/(Pixel*Frame) : 0.211
Stream size : 1 006 MiB (67%)
Writing library : XviD 58

Audio #1
ID : 1
Format : AC-3
Format/Info : Audio Coding 3
Mode extension : CM (complete main)
Codec ID : 2000
Duration : 1h 45mn
Bit rate mode : Constant
Bit rate : 448 Kbps
Channel(s) : 6 channels
Channel positions : Front: L C R, Side: L R, LFE
Sampling rate : 48.0 KHz
Bit depth : 16 bits
Compression mode : Lossy
Stream size : 337 MiB (23%)
Alignment : Split accross interleaves
Interleave, duration : 42 ms (1.00 video frame)
Interleave, preload duration : 500 ms

Audio #2
ID : 2
Format : AC-3
Format/Info : Audio Coding 3
Mode extension : CM (complete main)
Codec ID : 2000
Duration : 1h 45mn
Bit rate mode : Constant
Bit rate : 192 Kbps
Channel(s) : 2 channels
Channel positions : Front: L R
Sampling rate : 48.0 KHz
Bit depth : 16 bits
Compression mode : Lossy
Stream size : 145 MiB (10%)
Alignment : Split accross interleaves
Interleave, duration : 42 ms (1.00 video frame)
Interleave, preload duration : 500 ms



Скачать Блеск.Shine.(Скотт.Хикс.Scott.Hicks).[1996.драма.мелодрама.биография.HDRip].[AVO].(Ю.Сербин).+.[Sub.(Rus)].torrent без регистрации
Золото ЗОЛОТАЯ РАЗДАЧА! СКАЧАННОЕ НЕ ЗАСЧИТЫВАЕТСЯ! Золото
Дата: Зарегистрирован   [ Тип: внутренний ] Как тут cкачать?
MAGNET ссылка
MAGNET ссылка


Скачать .torrent

15 KB

Статус: проверено DHT
Скачан: торрент - 102 раз, раздача полностью - 4 раз
Размер: 1,46 GB
Оценка:  - (Голосов: 0)
Поблагодарили: 0
Поделиться ссылкой на эту раздачу с друзьями:
В контактеFacebookОдноклассникиTwitterLivejournalМой МирLiveinternet
 

 
Показать сообщения:    


Вы не можете начинать темы
Вы не можете отвечать на сообщения
Вы не можете редактировать свои сообщения
Вы не можете удалять свои сообщения
Вы не можете голосовать в опросах
Вы не можете прикреплять файлы к сообщениям
Вы можете скачивать файлы