Loading...
Error

Скачать Золотой Ребёнок / The Golden Child (Майкл Ритчи / Michael Ritchie) [1986, боевик, приключения, комедия, фэнтези, HDRip] 2x[MVO] (СТС, ТВ-Центр) + [DVO] (Премьер Видео Фильм) + [AVO] (Горчаков) торрент без регистрации

 
Статистика раздачи
Размер:  1,7 GB   |    Скачан:  98 раз

Полного источника не было: 19 минут

 
Автор Сообщение

leon030982

[] 

Золотой Ребёнок / The Golden Child


Год выпуска: 1986
Страна: США
Жанр: боевик, приключения, комедия, фэнтези
Продолжительность: 01:33:27
Перевод: Профессиональный (многоголосый, закадровый) СТС
Роли озвучивали: Александр Клюквин, Александр Груздев и Ольга Зубкова

Перевод 2: Профессиональный (многоголосый, закадровый) ТВ-Центр
Роли озвучивали: Александр Клюквин, Виктор Петров и Людмила Ильина
Перевод 3: Профессиональный (двухголосый, закадровый) Премьер Видео Фильм (отдельно)
Роли озвучивали: Вадим Андреев и Людмила Ильина
Перевод 4: Авторский (одноголосый, закадровый) Василий Горчаков (отдельно)
Cубтитры: нет

Режиссер: Майкл Ритчи / Michael Ritchie

В ролях: Эдди Мёрфи, Дж. Л. Рит, Чарльз Дэнс, Шарлотта Льюис, Виктор Вонг, Рэндал «Текс» Кобб, Джеймс Хонг, Шакти, Тау Лого, Тайгер Чун Ли

Описание: Через каждую тысячу поколений на свет появляется идеальный ребенок, дитя, наделенное магической силой, чье предназначение — нести добро миру. Силы зла похитили ребенка… Теперь важнее всего на свете — найти его!
Древний оракул Нечунг предсказал, что спасти Золотого ребенка сможет только избранный человек. Согласно предсказанию, это должен быть отважный человек с чистой душой. Под это определение подходит только один смертный — Чендлер из Лос-Анджелеса. Он должен выполнить свою миссию, отвоевать у сил зла Золотого ребенка и спасти мир…




Качество видео: HDRip
Формат видео: AVI
Видео кодек: XviD
Аудио кодек: AC3
Видео: XviD, 688x384 (16:9), 23.976 fps, 1822 kbps avg (HDRip by Scarabey)
Аудио №1: Русский (СТС) AC3, 48.0 khz, 2.0 ch, 192 kbps (IPTVRip by mixaiil77)
Аудио №2: Русский (ТВ-Центр) AC3, 48.0 khz, 2.0 ch, 192 kbps (VHSRip by Home Video)
Аудио №3: Русский (Премьер Видео Фильм) AC3, 48.0 khz, 2.0 ch, 192 kbps (VHSRip by Fikaloid)
Аудио №4: Русский (Горчаков) AC3, 48.0 khz, 2.0 ch, 192 kbps (VHSRip by , взят с пиратки)
Общее
Полное имя : E:\Альберт\Downloads\Золотой Ребёнок\Золотой Ребёнок.avi
Формат : AVI
Формат/Информация : Audio Video Interleave
Размер файла : 1,45 Гбайт
Продолжительность : 1 ч. 33 м.
Общий поток : 2220 Кбит/сек
Программа кодирования : VirtualDubMod 1.5.10.2 (build 2540/release)
Библиотека кодирования : VirtualDubMod build 2540/release
Видео
Идентификатор : 0
Формат : MPEG-4 Visual
Профиль формата : Advanced Simple@L5
Параметр BVOP формата : 1
Параметр QPel формата : Нет
Параметр GMC формата : Без точки перехода
Параметр матрицы формата : Выборочная
Идентификатор кодека : XVID
Идентификатор кодека/Подсказка : XviD
Продолжительность : 1 ч. 33 м.
Битрейт : 1822 Кбит/сек
Ширина : 688 пикселей
Высота : 384 пикселя
Соотношение сторон : 16:9
Частота кадров : 23,976 кадра/сек
Цветовое пространство : YUV
Субдискретизация насыщенности : 4:2:0
Битовая глубина : 8 бит
Тип развёртки : Прогрессивная
Метод сжатия : С потерями
Бит/(Пиксели*Кадры) : 0.288
Размер потока : 1,19 Гбайт (82%)
Библиотека кодирования : XviD 73
Аудио #1
Идентификатор : 1
Формат : AC-3
Формат/Информация : Audio Coding 3
Расширение режима : CM (complete main)
Параметр Endianness формата : Big
Идентификатор кодека : 2000
Продолжительность : 1 ч. 33 м.
Вид битрейта : Постоянный
Битрейт : 192 Кбит/сек
Каналы : 2 канала
Расположение каналов : Front: L R
Частота : 48,0 КГц
Битовая глубина : 16 бит
Метод сжатия : С потерями
Размер потока : 128 Мбайт (9%)
Выравнивание : Разделение по промежуткам
Продолжительность промежутка : 42 мс. (1,00 видеокадр)
Время предзагрузки промежутка : 500 мс.
Аудио #2
Идентификатор : 2
Формат : AC-3
Формат/Информация : Audio Coding 3
Расширение режима : CM (complete main)
Параметр Endianness формата : Big
Идентификатор кодека : 2000
Продолжительность : 1 ч. 33 м.
Вид битрейта : Постоянный
Битрейт : 192 Кбит/сек
Каналы : 2 канала
Расположение каналов : Front: L R
Частота : 48,0 КГц
Битовая глубина : 16 бит
Метод сжатия : С потерями
Размер потока : 128 Мбайт (9%)
Выравнивание : Разделение по промежуткам
Продолжительность промежутка : 42 мс. (1,00 видеокадр)
Время предзагрузки промежутка : 500 мс.





Скачать Золотой.Ребёнок.The.Golden.Child.(Майкл.Ритчи.Michael.Ritchie).[1986.боевик.приключения.комедия.фэнтези.HDRip].2x[MVO].(СТС.ТВ-Центр).+.[DVO].(Премьер.Видео.Фильм).+.[AVO].(Горчаков).torrent без регистрации
Золото ЗОЛОТАЯ РАЗДАЧА! СКАЧАННОЕ НЕ ЗАСЧИТЫВАЕТСЯ! Золото
Дата: Зарегистрирован   [ Тип: внутренний ] Как тут cкачать?
MAGNET ссылка
MAGNET ссылка


Скачать .torrent

18 KB

Статус: проверено DHT
Скачан: торрент - 98 раз, раздача полностью - 2 раз
Размер: 1,7 GB
Оценка:  - (Голосов: 0)
Поблагодарили: 2
Поделиться ссылкой на эту раздачу с друзьями:
В контактеFacebookОдноклассникиTwitterLivejournalМой МирLiveinternet
 

 
Показать сообщения:    


Вы не можете начинать темы
Вы не можете отвечать на сообщения
Вы не можете редактировать свои сообщения
Вы не можете удалять свои сообщения
Вы не можете голосовать в опросах
Вы не можете прикреплять файлы к сообщениям
Вы можете скачивать файлы