Loading...
Error

Скачать Полиция Гавайев / Гавайи 5.0 / Hawaii Five-0 (сезон 04) (боевик, драма, криминал) [2013-2014, боевик, драма, криминал, WEB-DL] [1080p] [MVO (LostFilm)] торрент без регистрации

 
Статистика раздачи
Размер:  38,34 GB   |    Скачан:  2442 раза
Сидов:  1  [  0 KB/s  ]  
 
Автор Сообщение

МихаНЕзатор

[] 

Информация о фильме
Название: Полиция Гавайев / Гавайи 5.0
Оригинальное название: Hawaii Five-0
Год выхода: 2013-2014
Жанр: боевик, драма, криминал
Режиссер: Брэд Тернер, Дуан Кларк, Мэтт Эрл Бисли, Стив Бойум, Крис Фишер, Ларри Тенг

В ролях: Алекс ОЛоклин, Скотт Каан, Дэниэл Дэ Ким, Грейс Пак, Терри О'Куинн, Тайлор Уайли, Teilor Grubbs, Маси Ока, Клер Вандер Бум, Дэннис Чун, Марк Дакаскос

О фильме: Детектив Стив МакГарретт, бывший морской офицер с массой наград, а теперь полицейский, возвращается в Оаху расследовать убийство отца. Он остается на острове, после того, как губернатор штата Гавайи убедил его возглавить новую команду. Команда будет действовать по его правилам, при поддержке губернатора, без бюрократических проволочек, и с полным иммунитетом, все это - чтобы поймать самую крупную «дичь» в городе.

К МакГаррету присоединяется детектив Дэнни «Данно» Уильямс, недавно переведенный из Нью-Джерси полицейский, который предпочел бы небоскребы пляжам, но готов бороться с преступностью, чтобы его 8-летняя дочь чувствовала себя на островах в безопасности; и Чин Хо Келли, бывший детектив полиции Гонолулу, которого ошибочно обвинили в коррупции, и который когда-то был протеже отца МакГаррета. Двоюродная сестра Чина, Коно, прекрасная и бесстрашная уроженка островов, недавно выпустилась из академии, и рвется доказать, что она достойна места в элите департамента. МакГаррет клянется завершить дело отца, а члены нового спецотряда Five-O, может, и грызутся друг с другом, но настроены уничтожить преступность в пятидесятом штате.



Страна: США
Продолжительность: ~ 00:43:00
Перевод: Профессиональный многоголосый закадровый, LostFilm|

Файл
Кодек: MPEG-4 AVC
Качество: WEB-DL 1080p
Видео: ~ 5000 Кбит/с, 1920x1080, 23.976 кадр/с
Звук:
Русский (АС3, 2 ch, 384 Кбит/с), английский (АС3, 6 ch, 384 Кбит/с)
Субтитры: English

АНОНСЫ ПОПУЛЯРНЫХ РАЗДАЧ


15.10.2014 г. торент обновлён, добавлена 22-я серия!

Золотой глобус, 2011 год
Номинации (1):
Лучший актёр второго плана мини-сериала или фильма на ТВ (Скотт Каан)

01. Мы нужны друг другу / Aloha Ke Kahi I Ke Kahi
02. Не в своей стихии / A'ale Ma'a Wau
03. Правда внутри / Ka 'oia'i'o ma loko
04. С сегодняшнего дня... / From This Day Forward
05. Падший герой / Fallen Hero
06. Сломанные / Kupouli 'la
07. Под прикрытием / Ua Nalohia
08. Партнёры поневоле / Akanahe
09. С днём благодарения / Ha'uoli La Ho'omoaika'i
10. Чти отца своего / Ho'onani Makuakane
11. Сувенир / Pukana
12. Тогда и сейчас / 'O kela me keia manawa
13. Одолжение / Hana Lokomaika'i

General
Format : Matroska
Format version : Version 4 / Version 2
File size : 1.77 GiB
Duration : 43mn 16s
Overall bit rate : 5 846 Kbps
Encoded date : UTC 2013-10-09 11:37:30
Writing application : mkvmerge v6.1.0 ('Old Devil') built on Mar 2 2013 14:32:37
Writing library : libebml v1.3.0 + libmatroska v1.4.0

Video
ID : 1
Format : AVC
Format/Info : Advanced Video Codec
Format profile : High@L4.0
Format settings, CABAC : Yes
Format settings, ReFrames : 4 frames
Codec ID : V_MPEG4/ISO/AVC
Duration : 43mn 16s
Bit rate : 4 962 Kbps
Width : 1 920 pixels
Height : 1 080 pixels
Display aspect ratio : 16:9
Frame rate mode : Constant
Frame rate : 23.976 fps
Color space : YUV
Chroma subsampling : 4:2:0
Bit depth : 8 bits
Scan type : Progressive
Bits/(Pixel*Frame) : 0.100
Stream size : 1.50 GiB (85%)
Language : English
Default : Yes
Forced : No
Color primaries : BT.709
Transfer characteristics : BT.709
Matrix coefficients : BT.709

Audio #1
ID : 2
Format : AC-3
Format/Info : Audio Coding 3
Mode extension : CM (complete main)
Format settings, Endianness : Big
Codec ID : A_AC3
Duration : 43mn 16s
Bit rate mode : Constant
Bit rate : 384 Kbps
Channel(s) : 2 channels
Channel positions : Front: L R
Sampling rate : 48.0 KHz
Bit depth : 16 bits
Compression mode : Lossy
Stream size : 119 MiB (7%)
Title : LostFilm
Language : Russian
Default : Yes
Forced : No

Audio #2
ID : 3
Format : AC-3
Format/Info : Audio Coding 3
Mode extension : CM (complete main)
Format settings, Endianness : Big
Codec ID : A_AC3
Duration : 43mn 16s
Bit rate mode : Constant
Bit rate : 384 Kbps
Channel(s) : 6 channels
Channel positions : Front: L C R, Side: L R, LFE
Sampling rate : 48.0 KHz
Bit depth : 16 bits
Compression mode : Lossy
Stream size : 119 MiB (7%)
Language : English
Default : No
Forced : No

Text
ID : 4
Format : UTF-8
Codec ID : S_TEXT/UTF8
Codec ID/Info : UTF-8 Plain Text
Language : English
Default : No
Forced : No



Скачать Полиция.Гавайев.Гавайи.5.0.Hawaii.Five-0.(сезон.04).(боевик.драма.криминал).[2013-2014.боевик.драма.криминал.WEB-DL].[1080p].[MVO.(LostFilm)].torrent без регистрации
Золото ЗОЛОТАЯ РАЗДАЧА! СКАЧАННОЕ НЕ ЗАСЧИТЫВАЕТСЯ! Золото
Дата: Зарегистрирован   [ Тип: внутренний ] Как тут cкачать?
MAGNET ссылка
MAGNET ссылка


Скачать .torrent

194 KB

Статус: проверено DHT
Скачан: торрент - 2442 раз, раздача полностью - 1 раз
Размер: 38,34 GB
Оценка:  - (Голосов: 0)
Поблагодарили: 0
Поделиться ссылкой на эту раздачу с друзьями:
В контактеFacebookОдноклассникиTwitterLivejournalМой МирLiveinternet
 

 

МихаНЕзатор

[] 

Раздача обновлена.
 
Показать сообщения:    


Вы не можете начинать темы
Вы не можете отвечать на сообщения
Вы не можете редактировать свои сообщения
Вы не можете удалять свои сообщения
Вы не можете голосовать в опросах
Вы не можете прикреплять файлы к сообщениям
Вы можете скачивать файлы