Loading...
Error

Скачать Обитель лжи / House of Lies (03x01-05 из 12) (Стивен Хопкинс, Адам Бернштейн, Мигель Артета) [2014, драма, комедия, HDTV] [1080i] [MVO (Novamedia)] торрент без регистрации

 
Статистика раздачи
Размер:  7,07 GB   |    Скачан:  8548 раз
Сидов:  1  [  0 KB/s  ]  
 
Автор Сообщение

МихаНЕзатор

[] 

Обитель лжи / House of Lies


Название: Обитель лжи Оригинальное название: House of Lies
Год выхода: 2014
Жанр: драма, комедия

Режиссер: Стивен Хопкинс, Адам Бернштейн, Мигель Артета

В ролях: Дон Чидл, Кристен Белл, Бен Шварц, Джош Лоусон, Доун Оливери, Донис Леонард мл., Глинн Тёрмен, Ниа Лонг, Бесс Армстронг, Гриффин Данн

О фильме:
House of Lies - сериал основан на книге с длинным названием "House of Lies: How Management Consultants Steal Your Watch and Then Tell You the Time". В центре сюжета успешный бизнес-консультант Марти Кан (Дон Чидл), который не брезгует никакими средствами для достижения цели. Разведен, живет с отцом-мозгоправом, воспитывает сына-трансвестита. Его команда: Джинни (Кристен Белл) - бизнес-психолог по образованию, рубит правду-матку глядя собеседнику в глаза; Даг (Джош Лоусон) - слегка трусоватый, вечно что-то жующий выпускник Гарварда; Клайд (Бен Шварц) - в любом деле готов поддержать своего наставника и придти на выручку с дельным советом. Вместе они имеют этот мир!



Страна: США, Refugee Productions
Продолжительность: 2 x ~ 00:26:30
Перевод: Профессиональный многоголосый (Novamedia)

Качество: HDTV 1080i
Видео: MPEG-4 AVC, 6802 Кбит/с, 1920x1080
Звук: AC3, 6 ch, 384 Кбит/с

АНОНСЫ ПОПУЛЯРНЫХ РАЗДАЧ


11.02.2014 г. торент обновлён, добавлена 3-5 серия!
Общее
Идентификатор : 1 (0x1)
Полное имя : D:House.of.Lies.S03House.of.Lies.S03E01.2014.P.HDTV.1080i.ts
Формат : MPEG-TS
Размер файла : 1,35 Гбайт
Продолжительность : 25 м.
Режим общего битрейта : Переменный
Общий поток : 7563 Кбит/сек

Видео
Идентификатор : 69 (0x45)
Идентификатор меню : 1 (0x1)
Формат : AVC
Формат/Информация : Advanced Video Codec
Профиль формата : High@L4.0
Параметр CABAC формата : Да
Параметр ReFrames формата : 4 кадра
Идентификатор кодека : 27
Продолжительность : 25 м.
Битрейт : 6802 Кбит/сек
Ширина : 1920 пикселей
Высота : 1080 пикселей
Соотношение сторон : 16:9
Частота кадров : 25,000 кадров/сек
Стандарт вещания : Component
Цветовое пространство : YUV
Субдискретизация насыщенности : 4:2:0
Битовая глубина : 8 бит
Тип развёртки : MBAFF
Бит/(Пиксели*Кадры) : 0.131
Размер потока : 1,21 Гбайт (90%)
Основные цвета : BT.709
Характеристики трансфера : BT.709
Коэффициенты матрицы : BT.709

Аудио
Идентификатор : 68 (0x44)
Идентификатор меню : 1 (0x1)
Формат : AC-3
Формат/Информация : Audio Coding 3
Расширение режима : CM (complete main)
Параметр Endianness формата : Big
Идентификатор кодека : 129
Продолжительность : 25 м.
Вид битрейта : Постоянный
Битрейт : 384 Кбит/сек
Каналы : 6 каналов
Расположение каналов : Front: L C R, Side: L R, LFE
Частота : 48,0 КГц
Битовая глубина : 16 бит
Метод сжатия : С потерями
Размер потока : 70,1 Мбайт (5%)
Язык : Russian



Скачать Обитель.лжи.House.of.Lies.(03x01-05.из.12).(Стивен.Хопкинс.Адам.Бернштейн.Мигель.Артета).[2014.драма.комедия.HDTV].[1080i].[MVO.(Novamedia)].torrent без регистрации
Золото ЗОЛОТАЯ РАЗДАЧА! СКАЧАННОЕ НЕ ЗАСЧИТЫВАЕТСЯ! Золото
Дата: Зарегистрирован   [ Тип: внутренний ] Как тут cкачать?
MAGNET ссылка
MAGNET ссылка


Скачать .torrent

19 KB

Статус: проверено DHT
Скачан: торрент - 8548 раз, раздача полностью - 0 раз
Размер: 7,07 GB
Оценка:  - (Голосов: 0)
Поблагодарили: 1
Поделиться ссылкой на эту раздачу с друзьями:
В контактеFacebookОдноклассникиTwitterLivejournalМой МирLiveinternet
 

 
Показать сообщения:    


Вы не можете начинать темы
Вы не можете отвечать на сообщения
Вы не можете редактировать свои сообщения
Вы не можете удалять свои сообщения
Вы не можете голосовать в опросах
Вы не можете прикреплять файлы к сообщениям
Вы можете скачивать файлы