Loading...
Error

Скачать Черные кошки в бамбуковых зарослях / Yabu no naka no kuroneko (Канэто Синдо) [1968, ужасы, BDRip-AVC] [MVO]+[Оригинал]+[Sub]x2 торрент без регистрации

 
Статистика раздачи
Размер:  2,12 GB   |    Скачан:  103 раза
Сидов:  1  [  0 KB/s  ]  
 
Автор Сообщение

Marsianka

[] 

Информация о фильме
Название: Черные кошки в бамбуковых зарослях
Оригинальное название: Yabu no naka no kuroneko
Год выхода: 1968
Жанр: ужасы
Режиссер: Канэто Синдо
В ролях: Китиэмон Накамура, Нобуко Отова, Кэй Сато, Тайдзи Тонояма, Рокко Тоура, Хидэо Кандзэ, Хидеаки Есуми, Масаши Оки, Рика Мизуки
О фильме: В этом потрясающе зловещем и романтическом фильме - вольной экранизации японской народной сказки "Возвращение Кошки" - мать и падчерица (Нобуко Отова и Кивако Таити) изнасилованы и убиты мародерами, но возвращаются из мертвых как духи кошки-вампира с намерением отомстить. В то время как привидения завлекают солдат в бамбуковом лесу, бесстрашный самурай Гинтоки (Китиэмон Накамура) послан прекратить их власть. Kuroneko остается выдающимся фильмом жанра kaidan eiga - историй о привидениях, часто основанных на старых легендах или пьесах кабуки.



Страна: Япония
Студия: Toho Company
Продолжительность: 01:39:41
Перевод: Профессиональный многоголосый + оригинал

Файл
Кодек: MPEG-4 AVC
Качество: BDRip-AVC
Видео: MPEG-4 AVC, 2700 Кбит/с, 1024x436, 23.976 кадр/с
Аудио #1: Русский (AC3, 2 ch, 192 Кбит/с) / Профессиональный многоголосый
Аудио #2: Японский (AC3, 1 ch, 192 Кбит/с)
Субтитры: Русские, английские
Семпл
Общее
Уникальный идентификатор : 238941625036922289883127456360342804956 (0xB3C27BA9F2193BD18B2AA0DBD524D9DC)
Полное имя : D:Мои РипыKuroneko.1968.x264.BDRip.AVC.MediaClub.mkv
Формат : Matroska
Версия формата : Version 4 / Version 2
Размер файла : 2,12 Гбайт
Продолжительность : 1 ч. 39 м.
Общий поток : 3039 Кбит/сек
Название фильма : = MediaClub = rip by krakatuq
Дата кодирования : UTC 2014-01-20 12:14:43
Программа кодирования : mkvmerge v6.5.0 ('Isn't she lovely') built on Oct 20 2013 12:50:05
Библиотека кодирования : libebml v1.3.0 + libmatroska v1.4.1

Видео
Идентификатор : 1
Формат : AVC
Формат/Информация : Advanced Video Codec
Профиль формата : High@L4.1
Параметр CABAC формата : Да
Параметр ReFrames формата : 9 кадров
Идентификатор кодека : V_MPEG4/ISO/AVC
Продолжительность : 1 ч. 39 м.
Битрейт : 2700 Кбит/сек
Ширина : 1024 пикселя
Высота : 436 пикселей
Соотношение сторон : 2,35:1
Режим частоты кадров : Постоянный
Частота кадров : 23,976 кадра/сек
Цветовое пространство : YUV
Субдискретизация насыщенности : 4:2:0
Битовая глубина : 8 бит
Тип развёртки : Прогрессивная
Бит/(Пиксели*Кадры) : 0.252
Размер потока : 1,81 Гбайт (85%)
Заголовок : Kuroneko.1968.x264.BDRip.AVC.MediaClub
Библиотека кодирования : x264 core 130 r2273 b3065e6
Настройки программы : cabac=1 / ref=9 / deblock=1:-3:-3 / analyse=0x3:0x133 / me=umh / subme=11 / psy=1 / psy_rd=1.00:0.25 / mixed_ref=1 / me_range=32 / chroma_me=1 / trellis=2 / 8x8dct=1 / cqm=0 / deadzone=21,11 / fast_pskip=0 / chroma_qp_offset=-4 / threads=3 / lookahead_threads=1 / sliced_threads=0 / nr=0 / decimate=0 / interlaced=0 / bluray_compat=0 / constrained_intra=0 / bframes=8 / b_pyramid=2 / b_adapt=2 / b_bias=0 / direct=3 / weightb=1 / open_gop=0 / weightp=2 / keyint=240 / keyint_min=23 / scenecut=40 / intra_refresh=0 / rc=2pass / mbtree=0 / bitrate=2700 / ratetol=1.0 / qcomp=0.60 / qpmin=0 / qpmax=69 / qpstep=4 / cplxblur=20.0 / qblur=0.5 / ip_ratio=1.40 / pb_ratio=1.30 / aq=1:1.00
Язык : Japanese
Default : Да
Forced : Нет

Аудио #1
Идентификатор : 2
Формат : AC-3
Формат/Информация : Audio Coding 3
Расширение режима : CM (complete main)
Параметр Endianness формата : Big
Идентификатор кодека : A_AC3
Продолжительность : 1 ч. 39 м.
Вид битрейта : Постоянный
Битрейт : 192 Кбит/сек
Каналы : 2 канала
Расположение каналов : Front: L R
Частота : 48,0 КГц
Битовая глубина : 16 бит
Метод сжатия : С потерями
Размер потока : 137 Мбайт (6%)
Заголовок : TRACK_01_MVO_RUS
Язык : Russian
Default : Да
Forced : Да

Аудио #2
Идентификатор : 3
Формат : AC-3
Формат/Информация : Audio Coding 3
Расширение режима : CM (complete main)
Параметр Endianness формата : Big
Идентификатор кодека : A_AC3
Продолжительность : 1 ч. 39 м.
Вид битрейта : Постоянный
Битрейт : 192 Кбит/сек
Каналы : 1 канал
Расположение каналов : Front: C
Частота : 48,0 КГц
Битовая глубина : 16 бит
Метод сжатия : С потерями
Размер потока : 137 Мбайт (6%)
Заголовок : TRACK_02_ORIGINAL_JAP
Язык : Japanese
Default : Нет
Forced : Нет

Текст #1
Идентификатор : 4
Формат : UTF-8
Идентификатор кодека : S_TEXT/UTF8
Идентификатор кодека/Информация : UTF-8 Plain Text
Заголовок : TEXT_01_SUB_RUS
Язык : Russian
Default : Нет
Forced : Нет

Текст #2
Идентификатор : 5
Формат : UTF-8
Идентификатор кодека : S_TEXT/UTF8
Идентификатор кодека/Информация : UTF-8 Plain Text
Заголовок : TEXT_02_SUB_ENG
Язык : English
Default : Нет
Forced : Нет

Меню
00:00:00.000 : en:00:00:00.000
00:02:11.214 : en:00:02:11.214
00:07:25.028 : en:00:07:25.028
00:08:53.366 : en:00:08:53.366
00:11:35.361 : en:00:11:35.361
00:15:17.500 : en:00:15:17.500
00:20:32.398 : en:00:20:32.398
00:23:34.580 : en:00:23:34.580
00:29:25.013 : en:00:29:25.013
00:32:24.025 : en:00:32:24.025
00:35:19.242 : en:00:35:19.242
00:38:37.190 : en:00:38:37.190
00:41:39.706 : en:00:41:39.706
00:43:26.562 : en:00:43:26.562
00:48:48.092 : en:00:48:48.092
00:51:23.580 : en:00:51:23.580
00:53:34.628 : en:00:53:34.628
00:56:37.811 : en:00:56:37.811
01:04:33.745 : en:01:04:33.745
01:06:08.006 : en:01:06:08.006
01:10:02.698 : en:01:10:02.698
01:16:50.022 : en:01:16:50.022
01:20:57.144 : en:01:20:57.144
01:24:49.251 : en:01:24:49.251
01:26:14.503 : en:01:26:14.503
01:29:48.967 : en:01:29:48.967
01:36:51.973 : en:01:36:51.973
x264 [info]: frame I:882 Avg QP:17.15 size: 64580
x264 [info]: frame P:32400 Avg QP:20.50 size: 25730
x264 [info]: frame B:110119 Avg QP:22.86 size: 10248
Сохранены оригинальные чаптеры как на Blu-ray.

За помощь в подготовке релиза спасибо Константину - Painter и Виталию - neni

За постер спасибо Инне - cookies от Media-Art-Club
Релиз от:

Автор рипа:



Скачать Черные.кошки.в.бамбуковых.зарослях.Yabu.no.naka.no.kuroneko.(Канэто.Синдо).[1968.ужасы.BDRip-AVC].[MVO]+[Оригинал]+[Sub]x2.torrent без регистрации
Золото ЗОЛОТАЯ РАЗДАЧА! СКАЧАННОЕ НЕ ЗАСЧИТЫВАЕТСЯ! Золото
Дата: Зарегистрирован   [ Тип: внутренний ] Как тут cкачать?
MAGNET ссылка
MAGNET ссылка


Скачать .torrent

11 KB

Статус: проверено DHT
Скачан: торрент - 103 раз, раздача полностью - 1 раз
Размер: 2,12 GB
Оценка:  - (Голосов: 0)
Поблагодарили: 1
Поделиться ссылкой на эту раздачу с друзьями:
В контактеFacebookОдноклассникиTwitterLivejournalМой МирLiveinternet
 

 
Показать сообщения:    


Вы не можете начинать темы
Вы не можете отвечать на сообщения
Вы не можете редактировать свои сообщения
Вы не можете удалять свои сообщения
Вы не можете голосовать в опросах
Вы не можете прикреплять файлы к сообщениям
Вы можете скачивать файлы