Loading...
Error

Скачать Агент 077: Ярость с востока / Agente 077 dall'oriente con furore (Серджо Греко) [1965, боевик, DVDRip] [AVO]+[Оригинал] торрент без регистрации

 
Статистика раздачи
Размер:  1,46 GB   |    Скачан:  98 раз
Сидов:  1  [  0 KB/s  ]  
 
Автор Сообщение

Marsianka

[] 

Страна: Италия, Франция, Испания
Производство: Fida Cinematografica, Les Productions Jacques Roitfeld, Producciones Benito Perojo
Жанр: боевик
Год выпуска: 1965

Продолжительность: 01:42:17

Перевод: Авторский (Белов)

Оригинальная аудиодорожка: Английская

Режиссер: Серджо Греко

В ролях: Кен Кларк, Маргарет Ли, Фабьен Дали, Эви Маранди, Филипп Эрсен, Микаела, Фернандо Санчо, Лорис Баццокки, Эннио Бальбо, Клаудио Руффини


Описание: Международная преступная организация похищает ученого профессора Франца Курца, который сделал потрясающее открытие: оружие, способное расплавлять все твердые предметы, включая металл. Преступники намереваются продать изобретение профессора Курца за очень крупную сумму денег. На спасение ученого отправляется секретный агент ЦРУ по имени Дик Маллой, имеющий порядковый номер 077. В поисках ему помогает дочь профессора, очаровательная девушка Роми. Но об этом открытии вскоре становится известно и русским



Исходник: DVD9 R2

Тип релиза: DVDRip

Контейнер: AVI

Видео: 720x336 (2.14:1), 23.976 fps, XviD ~1645 kbps avg, 0.28 bit/pixel
Аудио: #1: 48 kHz, AC3 2.0 ~192.00 kbps avg (RUS)
Аудио: #2: 48 kHz, AC3 2.0 ~128.00 kbps avg (ENG)
Общее
Полное имя : D:залитьАгент 077 Ярость с востока.avi
Формат : AVI
Формат/Информация : Audio Video Interleave
Размер файла : 1,46 Гбайт
Продолжительность : 1 ч. 42 м.
Общий поток : 2044 Кбит/сек
Программа кодирования : VirtualDubMod 1.5.10.2 (build 2540/release)
Библиотека кодирования : VirtualDubMod build 2540/release

Видео
Идентификатор : 0
Формат : MPEG-4 Visual
Профиль формата : Advanced Simple@L5
Параметр BVOP формата : 1
Параметр QPel формата : Нет
Параметр GMC формата : Без точки перехода
Параметр матрицы формата : Default (H.263)
Идентификатор кодека : XVID
Идентификатор кодека/Подсказка : XviD
Продолжительность : 1 ч. 42 м.
Битрейт : 1646 Кбит/сек
Ширина : 720 пикселей
Высота : 336 пикселей
Соотношение сторон : 2,143
Частота кадров : 23,976 кадра/сек
Цветовое пространство : YUV
Субдискретизация насыщенности : 4:2:0
Битовая глубина : 8 бит
Тип развёртки : Прогрессивная
Метод сжатия : С потерями
Бит/(Пиксели*Кадры) : 0.284
Размер потока : 1,18 Гбайт (81%)
Библиотека кодирования : XviD 1.2.1 (UTC 2008-12-04)

Аудио #1
Идентификатор : 1
Формат : AC-3
Формат/Информация : Audio Coding 3
Расширение режима : CM (complete main)
Параметр Endianness формата : Big
Идентификатор кодека : 2000
Продолжительность : 1 ч. 42 м.
Вид битрейта : Постоянный
Битрейт : 192 Кбит/сек
Каналы : 2 канала
Расположение каналов : Front: L R
Частота : 48,0 КГц
Битовая глубина : 16 бит
Метод сжатия : С потерями
Размер потока : 140 Мбайт (9%)
Выравнивание : Разделение по промежуткам
Продолжительность промежутка : 42 мс. (1,00 видеокадр)
Время предзагрузки промежутка : 500 мс.

Аудио #2
Идентификатор : 2
Формат : AC-3
Формат/Информация : Audio Coding 3
Расширение режима : CM (complete main)
Параметр Endianness формата : Big
Идентификатор кодека : 2000
Продолжительность : 1 ч. 42 м.
Вид битрейта : Постоянный
Битрейт : 192 Кбит/сек
Каналы : 2 канала
Расположение каналов : Front: L R
Частота : 48,0 КГц
Битовая глубина : 16 бит
Метод сжатия : С потерями
Размер потока : 140 Мбайт (9%)
Выравнивание : Разделение по промежуткам
Продолжительность промежутка : 42 мс. (1,00 видеокадр)
Время предзагрузки промежутка : 500 мс.
Автор рипа:



Скачать Агент.077.Ярость.с.востока.Agente.077.dall'oriente.con.furore.(Серджо.Греко).[1965.боевик.DVDRip].[AVO]+[Оригинал].torrent без регистрации
Золото ЗОЛОТАЯ РАЗДАЧА! СКАЧАННОЕ НЕ ЗАСЧИТЫВАЕТСЯ! Золото
Дата: Зарегистрирован   [ Тип: внутренний ] Как тут cкачать?
MAGNET ссылка
MAGNET ссылка


Скачать .torrent

16 KB

Статус: проверено DHT
Скачан: торрент - 98 раз, раздача полностью - 2 раз
Размер: 1,46 GB
Оценка:  - (Голосов: 0)
Поблагодарили: 0
Поделиться ссылкой на эту раздачу с друзьями:
В контактеFacebookОдноклассникиTwitterLivejournalМой МирLiveinternet
 

 
Показать сообщения:    


Вы не можете начинать темы
Вы не можете отвечать на сообщения
Вы не можете редактировать свои сообщения
Вы не можете удалять свои сообщения
Вы не можете голосовать в опросах
Вы не можете прикреплять файлы к сообщениям
Вы можете скачивать файлы