Loading...
Error

Скачать С унынием в лице / Blue in the Face (Пол Остер / Paul Auster, Уэйн Ван / Wayne Wang) [1995 г., комедия, HDRip] MVO + 2хAVO + Orig + Sub (Eng) торрент без регистрации

 
Статистика раздачи
Размер:  1,68 GB   |    Скачан:  106 раз
Сидов:  1  [  0 KB/s  ]  
 
Автор Сообщение

leon030982

[] 

С унынием в лице / Blue in the Face


Год выпуска: 1995
Страна: США
Жанр: комедия
Продолжительность: 01:23:36
Перевод №1: Профессиональный (многоголосый, закадровый)
Перевод №2: Авторский (одноголосый, закадровый) [Павел Санаев]
Перевод №3: Авторский (одноголосый, закадровый) [Алексеев (отдельно)]
Перевод: Original English (отдельно)
Cубтитры: Английские (внешние, srt)

Режиссер: Пол Остер / Paul Auster, Уэйн Ван / Wayne Wang

В ролях: Харви Кейтель, Лу Рид, Майкл Дж. Фокс, Мира Сорвино, Розанна, Мэл Горхэм, Джим Джармуш, Лили Томлин, Джаред Харрис,
Мадонна

Описание: Мы видим Огги, философа по мироощушению, торгующего табаком. Он все там же и, наверняка все также снимает угол улиц, где находится его магазинчик. На этот раз вереница персонажей, проходящих через это место, многочисленней и разнообразней. Многие из них говорят о себе и о Бруклине прямо в камеру. Других мы узнаем по их диалогам, поступкам, рассказам, снятым достаточно документально. Нужно очень любить этот город, чтобы снять такое кино, не связанное сюжетом. Это картинки, сценки, кусочки из жизни — маленькие осколки мозаики, из которых наше воображение складывает общую картину, а память позволяет как будто увидеть эту картину издалека.


Качество: HDRip -Исх. BDRip 1080
Формат: AVI
Видео кодек:
Аудио кодек:
Видео: 704x384 (1.83:1), 23.976 fps, XviD build 73 ~2102 kbps avg, 0.32 bit/pixel
Аудио #1: 48 kHz, AC3 Dolby Digital, 2/0 (L,R) ch, 192.00 kbps avg MVO
Аудио #2: 48 kHz, AC3 Dolby Digital, 2/0 (L,R) ch, 192.00 kbps avg Павел Санаев
Аудио #3: 48 kHz, AC3 Dolby Digital, 2/0 (L,R) ch, 192.00 kbps avg Антон Алексеев
Аудио #4: 48 kHz, AC3 Dolby Digital, 2/0 (L,R) ch, 192.00 kbps avg Original (English)
Format : AVI
Format/Info : Audio Video Interleave
File size : 1.46 GiB
Duration : 1h 23mn
Overall bit rate : 2 499 Kbps
Movie name : С унынием в лице
Director : derdevil13
Writing application : VirtualDubMod 1.5.10.3 | www.virtualdub-fr.org || (build 2550/release)

Video
ID : 0
Format : MPEG-4 Visual
Format profile : Advanced Simple@L5
Format settings, BVOP : 2
Format settings, QPel : No
Format settings, GMC : No warppoints
Format settings, Matrix : Custom
Codec ID : XVID
Codec ID/Hint : XviD
Duration : 1h 23mn
Bit rate : 2 103 Kbps
Width : 704 pixels
Height : 384 pixels
Display aspect ratio : 1.85:1
Frame rate : 23.976 fps
Color space : YUV
Chroma subsampling : 4:2:0
Bit depth : 8 bits
Scan type : Progressive
Compression mode : Lossy
Bits/(Pixel*Frame) : 0.324
Stream size : 1.23 GiB (84%)
Writing library : XviD 73

Audio #1
ID : 1
Format : AC-3
Format/Info : Audio Coding 3
Mode extension : CM (complete main)
Format settings, Endianness : Big
Codec ID : 2000
Duration : 1h 23mn
Bit rate mode : Constant
Bit rate : 192 Kbps
Channel(s) : 2 channels
Channel positions : Front: L R
Sampling rate : 48.0 KHz
Bit depth : 16 bits
Compression mode : Lossy
Stream size : 114 MiB (8%)
Alignment : Split accross interleaves
Interleave, duration : 42 ms (1.00 video frame)
Interleave, preload duration : 500 ms

Audio #2
ID : 2
Format : AC-3
Format/Info : Audio Coding 3
Mode extension : CM (complete main)
Format settings, Endianness : Big
Codec ID : 2000
Duration : 1h 23mn
Bit rate mode : Constant
Bit rate : 192 Kbps
Channel(s) : 2 channels
Channel positions : Front: L R
Sampling rate : 48.0 KHz
Bit depth : 16 bits
Compression mode : Lossy
Stream size : 114 MiB (8%)
Alignment : Split accross interleaves
Interleave, duration : 42 ms (1.00 video frame)
Interleave, preload duration : 500 ms



Скачать С.унынием.в.лице.Blue.in.the.Face.(Пол.Остер.Paul.Auster.Уэйн.Ван.Wayne.Wang).[1995.г.комедия.HDRip].MVO.+.2хAVO.+.Orig.+.Sub.(Eng).torrent без регистрации
Золото ЗОЛОТАЯ РАЗДАЧА! СКАЧАННОЕ НЕ ЗАСЧИТЫВАЕТСЯ! Золото
Дата: Зарегистрирован   [ Тип: внутренний ] Как тут cкачать?
MAGNET ссылка
MAGNET ссылка


Скачать .torrent

18 KB

Статус: проверено DHT
Скачан: торрент - 106 раз, раздача полностью - 1 раз
Размер: 1,68 GB
Оценка:  - (Голосов: 0)
Поблагодарили: 0
Поделиться ссылкой на эту раздачу с друзьями:
В контактеFacebookОдноклассникиTwitterLivejournalМой МирLiveinternet
 

 
Показать сообщения:    


Вы не можете начинать темы
Вы не можете отвечать на сообщения
Вы не можете редактировать свои сообщения
Вы не можете удалять свои сообщения
Вы не можете голосовать в опросах
Вы не можете прикреплять файлы к сообщениям
Вы можете скачивать файлы