Loading...
Error

Скачать Кровь и бетон: История любви / Blood and Concrete, a Love Story (Джеффри Рейнер / Jeffrey Reiner) [1991, комедия, криминал, HDTVRip] [AVO] (Андрей Гаврилов) торрент без регистрации

 
Статистика раздачи
Размер:  1,46 GB   |    Скачан:  205 раз
Сидов:  1  [  2 KB/s  ]  
 
Автор Сообщение

leon030982

[] 

Кровь и бетон: История любви / Blood and Concrete, a Love Story


Год выпуска: 1991
Страна
: США
Жанр: комедия, криминал
Продолжительность: 01:34:54
Рейтинг MMPA:
Перевод: Авторский (одноголосый, закадровый) [Андрей Гаврилов]
Cубтитры: нет

Режиссер: Джеффри Рейнер / Jeffrey Reiner

В ролях: Билли Зейн, Дженнифер Билз, Дэррен МакГэвин, Джеймс ЛеГро, Марк Пеллегрино, Николас Уорт, Гарри Ширер, Стив Фридман, Патрик Купо
Описание: Мона поет в ночном клубе. Джой Теркс — мелкий воришка и аферист, за которым охотится наркоторговец. Истекая кровью, Джой упал к ногам Моны в ту самую минуту, когда она, не найдя счастья в любви, решила перерезать себе вены.


Качество видео: HDTVRip [исходник HDTV 1080i]
Формат: AVI
Видео кодек: XviD
Аудио кодек: AC3
Видео: XviD, 720x400, 25 fps, 1994 kbps, 0.27 bit/pixel
Аудио: AC3 Dolby Digital, 48 kHz, 192 kbps, 2/0 (L,R) ch
General
Complete name : Blood.and.Concrete.1991.HDTVRip.Xvid.AC3-Zombie.Lee.avi
Format : AVI
Format/Info : Audio Video Interleave
File size : 1.46 GiB
Duration : 1h 34mn
Overall bit rate : 2 197 Kbps
Writing library : VirtualDub build 33790/release
Video
ID : 0
Format : MPEG-4 Visual
Format profile : Advanced Simple@L5
Format settings, BVOP : 1
Format settings, QPel : No
Format settings, GMC : No warppoints
Format settings, Matrix : Custom
Codec ID : XVID
Codec ID/Hint : XviD
Duration : 1h 34mn
Bit rate : 1 995 Kbps
Width : 720 pixels
Height : 400 pixels
Display aspect ratio : 16:9
Frame rate : 25.000 fps
Color space : YUV
Chroma subsampling : 4:2:0
Bit depth : 8 bits
Scan type : Progressive
Compression mode : Lossy
Bits/(Pixel*Frame) : 0.277
Stream size : 1.32 GiB (91%)
Writing library : XviD 64
Audio
ID : 1
Format : AC-3
Format/Info : Audio Coding 3
Format profile : Dolby Digital
Mode extension : CM (complete main)
Codec ID : 2000
Duration : 1h 34mn
Bit rate mode : Constant
Bit rate : 192 Kbps
Channel(s) : 2 channels
Channel positions : Front: L R
Sampling rate : 48.0 KHz
Bit depth : 16 bits
Compression mode : Lossy
Stream size : 130 MiB (9%)
Alignment : Aligned on interleaves
Interleave, duration : 40 ms (1.00 video frame)
Interleave, preload duration : 512 ms




Скачать Кровь.и.бетон.История.любви.Blood.and.Concrete.a.Love.Story.(Джеффри.Рейнер.Jeffrey.Reiner).[1991.комедия.криминал.HDTVRip].[AVO].(Андрей.Гаврилов).torrent без регистрации
Золото ЗОЛОТАЯ РАЗДАЧА! СКАЧАННОЕ НЕ ЗАСЧИТЫВАЕТСЯ! Золото
Дата: Зарегистрирован   [ Тип: внутренний ] Как тут cкачать?
MAGNET ссылка
MAGNET ссылка


Скачать .torrent

15 KB

Статус: проверено DHT
Скачан: торрент - 205 раз, раздача полностью - 208 раз
Размер: 1,46 GB
Оценка:  - (Голосов: 0)
Поблагодарили: 1
Поделиться ссылкой на эту раздачу с друзьями:
В контактеFacebookОдноклассникиTwitterLivejournalМой МирLiveinternet
 

 
Показать сообщения:    


Вы не можете начинать темы
Вы не можете отвечать на сообщения
Вы не можете редактировать свои сообщения
Вы не можете удалять свои сообщения
Вы не можете голосовать в опросах
Вы не можете прикреплять файлы к сообщениям
Вы можете скачивать файлы