Loading...
Error

1984 / / Nineteen Eighty-Four ( / Michael Radford) [1984, , , , , WEB-DLRip] [DVO] (+)

 
1,46 GB   |    :  137
1  [  0 KB/s  ]  
 

leon030982

[] 

/ Nineteen Eighty-Four

The year of the movie. The movie of the year.

: 1984
:
: , , ,
: 01:50:30
1: ( )
[+]
2: ( ) { }
3: { }
:

: / Michael Radford

: ո, , , , , , , , , .
: . , . ,
: $8 430 492
MPAA: R ( 17 !)

: WEB-DLRip
: AVI
: XviD
: AC3
: 704x384 (1.83:1), 23.976 fps, XviD build 73 ~1683 kbps avg, 0.26 bit/pixel
#1: 48 kHz, AC3 Dolby Digital, 2/0 (L,R) ch, ~192.00 kbps [DVO]
#2: 48 kHz, AC3 Dolby Digital, 1/0 (C) ch, ~128.00 kbps [MVO] { }
#3: 48 kHz, AC3 Dolby Digital, 2/0 (L,R) ch, ~192.00 kbps [VO] { }
, .
, 4 1984 , 4 1984 .
` , .

:

General
Complete name : C:\Nineteen.Eighty-Four.1984.720p.WEB-DL.AAC2.0.H.264-BS\1984.WEB-DLRip.[R.G.AllFilms].avi
Format : AVI
Format/Info : Audio Video Interleave
File size : 1.46 GiB
Duration : 1h 50mn
Overall bit rate : 1 885 Kbps
Movie name : Nineteen Eighty-Four (1984) - WEB-DLRip by Juvelir
Writing application : VirtualDubMod 1.5.10.3 | www.virtualdub-fr.org || (build 2550/release)
Video
ID : 0
Format : MPEG-4 Visual
Format profile : Advanced Simple@L5
Format settings, BVOP : 1
Format settings, QPel : No
Format settings, GMC : No warppoints
Format settings, Matrix : Custom
Codec ID : XVID
Codec ID/Hint : XviD
Duration : 1h 50mn
Bit rate : 1 684 Kbps
Width : 704 pixels
Height : 384 pixels
Display aspect ratio : 1.85:1
Frame rate : 23.976 fps
Color space : YUV
Chroma subsampling : 4:2:0
Bit depth : 8 bits
Scan type : Progressive
Compression mode : Lossy
Bits/(Pixel*Frame) : 0.260
Stream size : 1.30 GiB (89%)
Writing library : XviD 73
Audio
ID : 1
Format : AC-3
Format/Info : Audio Coding 3
Mode extension : CM (complete main)
Format settings, Endianness : Big
Codec ID : 2000
Duration : 1h 50mn
Bit rate mode : Constant
Bit rate : 192 Kbps
Channel(s) : 2 channels
Channel positions : Front: L R
Sampling rate : 48.0 KHz
Bit depth : 16 bits
Compression mode : Lossy
Stream size : 152 MiB (10%)
Alignment : Split accross interleaves
Interleave, duration : 42 ms (1.00 video frame)
Interleave, preload duration : 500 ms
Title : DVO (+)



1984.....Nineteen.Eighty-Four.(..Michael.Radford).[1984.....WEB-DLRip].[DVO].(+).torrent
  ! ! 
:   [ : ] c?
MAGNET
MAGNET


.torrent

30 KB

: DHT
: - 137 , - 12
: 1,46 GB
5 (: 1)
: 5
:
 FacebookTwitterLivejournal Liveinternet
 

 
: