Loading...
Error

Скачать В порту / On the Waterfront (Элиа Казан) [1954, драма, криминал, BDRip] [DVO]x2+[Оригинал]+[Sub]x2 торрент без регистрации

 
Статистика раздачи
Размер:  2,34 GB   |    Скачан:  94 раза
Сидов:  1  [  0 KB/s  ]  
 
Автор Сообщение

Marsianka

[] 

Название: В порту
Оригинальное название: On the Waterfront
Год выпуска: 1954
Жанр: драма, криминал
Выпущено: США, Columbia Pictures Corporation, Horizon Pictures
Режиссер: Элиа Казан
В ролях: Марлон Брандо, Карл Молден, Ли Дж. Кобб, Род Стайгер, Пэт Хеннинг, Лейф Эриксон, Джеймс Уэстерфилд, Тони Галенто, Тами Морьелло, Джон Ф. Хэмилтон, Джон Хелдабрэнд, Руди Бонд, Дон Блэкман, Артур Кигэн, Абе Саймон, Ева Мари Сэйнт, Мартин Болсам, Дэн Бергин, Захари Чарльз, Джир Делани, Майкл В. Гаццо, Фред Гуинн

О фильме: В центре сюжета судьба простого докера Терри Мэллоу, терзающегося сомнениями и решающего встать на путь восстановления справедливости после того как выясняется, что он работает на настоящего гангстера коррумпированного босса портовых докеров Джонни Фрэндли.



Качество: BDRip
Размер: 2.34 ГБ
Продолжительность: 01:47:55

Видео: XviD, 1998 Кбит/с, 688x416
Аудио 1: русский, 48 kHz, AC3, 6 ch, 448 kbps avg, [Профессиональный двухголосый, DVD Магия]
Аудио 2: русский, 48 kHz, AC3, 2 ch, 192 kbps avg, [Профессиональный двухголосый, SomeWax]

Внешние файлы
Аудио: английский, 48 kHz, AC3, 6 ch, 448 kbps avg, [Оригинал]
Субтитры: русские
Субтитры: английские
Исходник: PiratCa (HDtracker)

Сравнение с исходником
Оскар, 1955 год
Победитель (8):
Лучший фильм
Лучшая мужская роль (Марлон Брандо)
Лучшая женская роль второго плана (Ева Мари Сэйнт)
Лучший режиссер (Элиа Казан)
Лучший сценарий
Лучшая работа оператора (ч/б фильмы)
Лучшая работа художника (ч/б фильмы)
Лучший монтаж

Номинации (4):
Лучшая мужская роль второго плана (Род Стайгер)
Лучшая мужская роль второго плана (Ли Дж. Кобб)
Лучшая мужская роль второго плана (Карл Молден)
Лучший саундтрек для драматических/комедийных картин

Золотой глобус, 1955 год
Победитель (4):
Лучший фильм (драма)
Лучшая мужская роль (драма) (Марлон Брандо)
Лучший режиссер (Элиа Казан)
Лучшая работа оператора (ч/б фильмы)

Британская академия, 1955 год
Победитель (1):
Лучший иностранный актер (Марлон Брандо)

Номинации (2):
Лучший фильм
Самый многообещающий новичок (Ева Мари Сэйнт)

Венецианский кинофестиваль, 1955 год
Победитель (1):
Приз Международной Католической организации в области кино (OCIC)

Венецианский кинофестиваль, 1954 год
Победитель (2):
Серебряный лев
Премия итальянских критиков

Номинации (1):
Золотой лев
Общее
Полное имя : E:VideoV portu.1954.XviD.BDRipV portu.1954.eng.srt
Формат : SubRip
Размер файла : 98,9 Кбайт

Текст
Формат : SubRip
Метод сжатия : Без потерь

Общее
Полное имя : E:VideoV portu.1954.XviD.BDRipV portu.1954.Original.eng.ac3
Формат : AC-3
Формат/Информация : Audio Coding 3
Размер файла : 346 Мбайт
Продолжительность : 1 ч. 47 м.
Режим общего битрейта : Постоянный
Общий поток : 448 Кбит/сек

Аудио
Формат : AC-3
Формат/Информация : Audio Coding 3
Расширение режима : CM (complete main)
Параметр Endianness формата : Big
Продолжительность : 1 ч. 47 м.
Вид битрейта : Постоянный
Битрейт : 448 Кбит/сек
Каналы : 6 каналов
Расположение каналов : Front: L C R, Side: L R, LFE
Частота : 48,0 КГц
Битовая глубина : 16 бит
Метод сжатия : С потерями
Размер потока : 346 Мбайт (100%)

Общее
Полное имя : E:VideoV portu.1954.XviD.BDRipV portu.1954.rus.srt
Формат : SubRip
Размер файла : 106 Кбайт

Текст
Формат : SubRip
Метод сжатия : Без потерь

Общее
Полное имя : E:VideoV portu.1954.XviD.BDRipV portu.1954.XviD.BDRip.avi
Формат : AVI
Формат/Информация : Audio Video Interleave
Профиль формата : OpenDML
Размер файла : 2,00 Гбайт
Продолжительность : 1 ч. 47 м.
Общий поток : 2657 Кбит/сек
Программа кодирования : VirtualDubMod 1.5.10.2 (build 2540/release)
Библиотека кодирования : VirtualDubMod build 2540/release

Видео
Идентификатор : 0
Формат : MPEG-4 Visual
Профиль формата : Advanced Simple@L5
Параметр BVOP формата : 1
Параметр QPel формата : Нет
Параметр GMC формата : Без точки перехода
Параметр матрицы формата : Default (H.263)
Режим смешивания : Сжатый битовый поток
Идентификатор кодека : XVID
Идентификатор кодека/Подсказка : XviD
Продолжительность : 1 ч. 47 м.
Битрейт : 1998 Кбит/сек
Ширина : 688 пикселей
Высота : 416 пикселей
Соотношение сторон : 1,654
Частота кадров : 23,976 кадра/сек
Цветовое пространство : YUV
Субдискретизация насыщенности : 4:2:0
Битовая глубина : 8 бит
Тип развёртки : Прогрессивная
Метод сжатия : С потерями
Бит/(Пиксели*Кадры) : 0.291
Размер потока : 1,51 Гбайт (75%)
Библиотека кодирования : XviD 1.2.1 (UTC 2008-12-04)

Аудио #1
Идентификатор : 1
Формат : AC-3
Формат/Информация : Audio Coding 3
Расширение режима : CM (complete main)
Параметр Endianness формата : Big
Идентификатор кодека : 2000
Продолжительность : 1 ч. 47 м.
Вид битрейта : Постоянный
Битрейт : 448 Кбит/сек
Каналы : 6 каналов
Расположение каналов : Front: L C R, Side: L R, LFE
Частота : 48,0 КГц
Битовая глубина : 16 бит
Метод сжатия : С потерями
Размер потока : 346 Мбайт (17%)
Выравнивание : Разделение по промежуткам
Продолжительность промежутка : 42 мс. (1,00 видеокадр)
Время предзагрузки промежутка : 500 мс.

Аудио #2
Идентификатор : 2
Формат : AC-3
Формат/Информация : Audio Coding 3
Расширение режима : CM (complete main)
Параметр Endianness формата : Big
Идентификатор кодека : 2000
Продолжительность : 1 ч. 47 м.
Вид битрейта : Постоянный
Битрейт : 192 Кбит/сек
Каналы : 2 канала
Расположение каналов : Front: L R
Частота : 48,0 КГц
Битовая глубина : 16 бит
Метод сжатия : С потерями
Размер потока : 148 Мбайт (7%)
Выравнивание : Разделение по промежуткам
Продолжительность промежутка : 42 мс. (1,00 видеокадр)
Время предзагрузки промежутка : 500 мс.



Скачать В.порту.On.the.Waterfront.(Элиа.Казан).[1954.драма.криминал.BDRip].[DVO]x2+[Оригинал]+[Sub]x2.torrent без регистрации
Золото ЗОЛОТАЯ РАЗДАЧА! СКАЧАННОЕ НЕ ЗАСЧИТЫВАЕТСЯ! Золото
Дата: Зарегистрирован   [ Тип: внутренний ] Как тут cкачать?
MAGNET ссылка
MAGNET ссылка


Скачать .torrent

12 KB

Статус: проверено DHT
Скачан: торрент - 94 раз, раздача полностью - 2 раз
Размер: 2,34 GB
Оценка:  - (Голосов: 0)
Поблагодарили: 1
Поделиться ссылкой на эту раздачу с друзьями:
В контактеFacebookОдноклассникиTwitterLivejournalМой МирLiveinternet
 

 
Показать сообщения:    


Вы не можете начинать темы
Вы не можете отвечать на сообщения
Вы не можете редактировать свои сообщения
Вы не можете удалять свои сообщения
Вы не можете голосовать в опросах
Вы не можете прикреплять файлы к сообщениям
Вы можете скачивать файлы