Loading...
Error

Скачать Африканец / L'africain (Филипп Де Брока) [1983, комедия, приключения, DVDRip] [Dub] торрент без регистрации

 
Статистика раздачи
Размер:  745 MB   |    Скачан:  109 раз
Сидов:  5  [  0 KB/s  ]  
 
Автор Сообщение

Marsianka

[] 

Страна: Франция
Производство: Renn Productions
Жанр: комедия, приключения
Год выпуска: 1983
Продолжительность: 01:36:33

Перевод: Профессиональный (дублированный)
Оригинальная аудиодорожка: нет
Cубтитры: нет

Режиссер: Филипп Де Брока / Philippe de Broca

В ролях:
Катрин Денёв, Филипп Нуаре, Жан-Франсуа Балмер, Жак Франсуа, Жан Бенгиги, Жозеф Момо, Вивиан Рид, Пьер Майкл, Гордон Хит, Рэймонд Акилон...

Роли дублировали:
Галина Чигинская, Владимир Трошин, Геннадий Богачёв, Александр Демьяненко, Кирилл Лавров...

Описание:
Фильм снят в экзотических местах Африки, куда прилетает героиня фильма, чтобы изучить возможность строительства отеля для туристов. Там она встречает своего мужа, летчика, охраняющего заповедник от браконьеров.
Они расстались несколько лет назад, но так и не смогли забыть друг друга. Он делает все возможное, чтобы воспрепятствовать уничтожению этого нетронутого уголка природы. Нешуточное столкновение интересов, забавные приключения и настоящая опасность возрождают старую любовь с новой силой...

Исходник: DVD5 R5
Тип релиза: DVDRip
Контейнер: AVI

Видео: 704x304 (2,35:1), 23,976 fps, XviD ~ 942 kbps avg, 0.184 bit/pixel
Аудио: 48 kHz, MP3 2.0, 128 kbps

Раздача от:

Общее
Полное имя : Afrikanec.1983.DVDRip-745_[New-team]_by_AVP_Studio.avi
Формат : AVI
Формат/Информация : Audio Video Interleave
Размер файла : 745 Мбайт
Продолжительность : 1 ч. 36 м.
Общий поток : 1079 Кбит/сек
Программа кодирования : VirtualDubModRus 1.5.10.2 (build 2542/release)
Библиотека кодирования : VirtualDubMod build 2542/release

Видео
Идентификатор : 0
Формат : MPEG-4 Visual
Профиль формата : Advanced Simple@L5
Параметр BVOP формата : 1
Параметр QPel формата : Нет
Параметр GMC формата : Без точки перехода
Параметр матрицы формата : Выборочная
Идентификатор кодека : XVID
Идентификатор кодека/Подсказка : XviD
Продолжительность : 1 ч. 36 м.
Битрейт : 942 Кбит/сек
Ширина : 704 пикселя
Высота : 304 пикселя
Соотношение сторон : 2,35:1
Частота кадров : 23,976 кадра/сек
Цветовое пространство : YUV
Субдискретизация насыщенности : 4:2:0
Битовая глубина : 8 бит
Тип развёртки : Прогрессивная
Метод сжатия : С потерями
Бит/(Пиксели*Кадры) : 0.184
Размер потока : 651 Мбайт (87%)
Библиотека кодирования : XviD 73

Аудио
Идентификатор : 1
Формат : MPEG Audio
Версия формата : Version 1
Профиль формата : Layer 3
Идентификатор кодека : 55
Идентификатор кодека/Подсказка : MP3
Продолжительность : 1 ч. 36 м.
Вид битрейта : Постоянный
Битрейт : 128 Кбит/сек
Каналы : 2 канала
Частота : 48,0 КГц
Метод сжатия : С потерями
Размер потока : 88,3 Мбайт (12%)
Выравнивание : Соединение по промежуткам
Продолжительность промежутка : 42 мс. (1,00 видеокадр)
Время предзагрузки промежутка : 504 мс.
Библиотека кодирования : LAME3.99r
Настройки программы : -m s -V 4 -q 2 -lowpass 17 -b 128



Скачать Африканец.L'africain.(Филипп.Де.Брока).[1983.комедия.приключения.DVDRip].[Dub].torrent без регистрации
Золото ЗОЛОТАЯ РАЗДАЧА! СКАЧАННОЕ НЕ ЗАСЧИТЫВАЕТСЯ! Золото
Дата: Зарегистрирован   [ Тип: внешний ] Как тут cкачать?
MAGNET ссылка
MAGNET ссылка


Скачать .torrent

15 KB

Статус: проверено DHT
Скачан: торрент - 109 раз, раздача полностью - 2 раз
Размер: 745 MB
Оценка:  - (Голосов: 0)
Поблагодарили: 0
Поделиться ссылкой на эту раздачу с друзьями:
В контактеFacebookОдноклассникиTwitterLivejournalМой МирLiveinternet
 

 
Показать сообщения:    


Вы не можете начинать темы
Вы не можете отвечать на сообщения
Вы не можете редактировать свои сообщения
Вы не можете удалять свои сообщения
Вы не можете голосовать в опросах
Вы не можете прикреплять файлы к сообщениям
Вы можете скачивать файлы