Loading...
Error

Скачать Соло / Solo (Норберто Барба) [1996, фантастика, боевик, триллер, DVDRip-AVC] [MVO]+[Оригинал]+[Sub]x2 торрент без регистрации

 
Статистика раздачи
Размер:  1,7 GB   |    Скачан:  126 раз
Сидов:  7  [  0 KB/s  ]   Личеров:  1  [  0 KB/s  ]  
 
Автор Сообщение

Marsianka

[] 

«Part man. Part machine. Total weapon. Prepare to go Solo!»



Страна: Мексика, США / Kinema Films de Mexico, Orpheus Films, Triumph Enterprises Inc., Triumph Films, Van Peebles Films

Жанр: фантастика, боевик, триллер
Год выпуска: 1996
Продолжительность: 01:30:02

Перевод: Профессиональный (многоголосый закадровый)
Cубтитры: русский, английский
Оригинальная аудиодорожка: английский (отдельно)

Режиссер: Норберто Барба / Norberto Barba

В ролях: Марио Ван Пиблз, Бэрри Корбин, Уильям Сэдлер, Хайме Гомес, Демиан Бишир, Сейди Лопез, Абрахам Вердуско, Хоакин Гарридо, Уильям Уоллес, Эдриан Броуди...

Описание: Он универсальный солдат, способный сражаться и побеждать в любых условиях. У него нет семьи, нет друзей. Он похож на человека, но сделан из полимеров и микросхем. Он Соло, машина c единственной программой убивать.
Но программа дает сбой. Соло начинает думать как человек. У него появляются человеческие чувства и друзья. Но жестокие военные, создавшие Соло, объявляют на него охоту. И Соло начинает беспощадную войну.



Качество: DVDRip-AVC / DVD5 R5
Формат: AVI

Видео: 720x572@1024x572 (16:9), 25.000 fps, H264 ~1929 kbps avg, 0.187 bit/pixel
Аудио 1: Русский 48 kHz, АС3, 6 ch, 384 kbps Constant
Аудио 2: Английский 48 kHz, АС3, 6 ch, 384 kbps Constant (отдельным файлом)
Формат субтитров: SoftSub (srt)
Примечание: В файле сохранены главы, как на оригинальном DVD диске
Раздача от:

Общее
Полное имя : Solo.1996.P.DVDRip-AVC_[New-Team]_by_avproh.mkv
Формат : Matroska
Версия формата : Version 4 / Version 2
Размер файла : 1,46 Гбайт
Продолжительность : 1 ч. 30 м.
Общий поток : 2314 Кбит/сек
Дата кодирования : UTC 2014-01-23 08:45:04
Программа кодирования : mkvmerge v6.7.0 ('Back to the Ground') 64bit built on Jan 8 2014 15:10:52
Библиотека кодирования : libebml v1.3.0 + libmatroska v1.4.1

Видео
Идентификатор : 1
Формат : AVC
Формат/Информация : Advanced Video Codec
Профиль формата : High@L4.1
Параметр CABAC формата : Да
Параметр ReFrames формата : 6 кадров
Идентификатор кодека : V_MPEG4/ISO/AVC
Продолжительность : 1 ч. 30 м.
Битрейт : 1929 Кбит/сек
Ширина : 720 пикселей
Высота : 572 пикселя
Соотношение сторон : 16:9
Режим частоты кадров : Постоянный
Частота кадров : 25,000 кадров/сек
Цветовое пространство : YUV
Субдискретизация насыщенности : 4:2:0
Битовая глубина : 8 бит
Тип развёртки : Прогрессивная
Бит/(Пиксели*Кадры) : 0.187
Размер потока : 1,19 Гбайт (81%)
Библиотека кодирования : x264 core 138 r2356 a1d3d17
Настройки программы : cabac=1 / ref=6 / deblock=1:-2:-1 / analyse=0x3:0x113 / me=umh / subme=10 / psy=1 / psy_rd=1.00:0.05 / mixed_ref=1 / me_range=32 / chroma_me=1 / trellis=2 / 8x8dct=1 / cqm=0 / deadzone=21,11 / fast_pskip=0 / chroma_qp_offset=-3 / threads=9 / lookahead_threads=1 / sliced_threads=0 / nr=0 / decimate=0 / interlaced=0 / bluray_compat=0 / constrained_intra=0 / bframes=8 / b_pyramid=2 / b_adapt=2 / b_bias=0 / direct=3 / weightb=1 / open_gop=0 / weightp=2 / keyint=250 / keyint_min=25 / scenecut=40 / intra_refresh=0 / rc=2pass / mbtree=0 / bitrate=1929 / ratetol=1.0 / qcomp=0.60 / qpmin=0 / qpmax=69 / qpstep=4 / cplxblur=20.0 / qblur=0.5 / ip_ratio=1.40 / pb_ratio=1.30 / aq=1:1.00
Язык : English
Default : Да
Forced : Нет

Аудио
Идентификатор : 2
Формат : AC-3
Формат/Информация : Audio Coding 3
Расширение режима : CM (complete main)
Параметр Endianness формата : Big
Идентификатор кодека : A_AC3
Продолжительность : 1 ч. 30 м.
Вид битрейта : Постоянный
Битрейт : 384 Кбит/сек
Каналы : 6 каналов
Расположение каналов : Front: L C R, Side: L R, LFE
Частота : 48,0 КГц
Битовая глубина : 16 бит
Метод сжатия : С потерями
Размер потока : 247 Мбайт (17%)
Язык : Russian
Default : Да
Forced : Нет

Текст #1
Идентификатор : 3
Формат : UTF-8
Идентификатор кодека : S_TEXT/UTF8
Идентификатор кодека/Информация : UTF-8 Plain Text
Язык : Russian
Default : Нет
Forced : Нет

Текст #2
Идентификатор : 4
Формат : UTF-8
Идентификатор кодека : S_TEXT/UTF8
Идентификатор кодека/Информация : UTF-8 Plain Text
Язык : English
Default : Нет
Forced : Нет

Меню
00:00:00.000 : en:00:00:00.000
00:08:17.400 : en:00:08:17.400
00:14:08.600 : en:00:14:08.600
00:21:12.160 : en:00:21:12.160
00:23:05.640 : en:00:23:05.640
00:27:28.360 : en:00:27:28.360
00:30:21.920 : en:00:30:21.920
00:35:55.800 : en:00:35:55.800
00:38:14.160 : en:00:38:14.160
00:44:30.760 : en:00:44:30.760
00:46:04.560 : en:00:46:04.560
00:48:08.760 : en:00:48:08.760
00:49:05.400 : en:00:49:05.400
00:51:55.560 : en:00:51:55.560
00:53:05.840 : en:00:53:05.840
00:54:13.240 : en:00:54:13.240
00:59:26.040 : en:00:59:26.040
01:01:12.560 : en:01:01:12.560
01:06:58.520 : en:01:06:58.520
01:08:37.640 : en:01:08:37.640
01:10:27.800 : en:01:10:27.800
01:11:00.320 : en:01:11:00.320
01:13:59.800 : en:01:13:59.800
01:14:47.760 : en:01:14:47.760
01:16:49.960 : en:01:16:49.960
01:19:06.680 : en:01:19:06.680
01:22:27.680 : en:01:22:27.680
01:25:20.400 : en:01:25:20.400



Скачать Соло.Solo.(Норберто.Барба).[1996.фантастика.боевик.триллер.DVDRip-AVC].[MVO]+[Оригинал]+[Sub]x2.torrent без регистрации
Золото ЗОЛОТАЯ РАЗДАЧА! СКАЧАННОЕ НЕ ЗАСЧИТЫВАЕТСЯ! Золото
Дата: Зарегистрирован   [ Тип: внешний ] Как тут cкачать?
MAGNET ссылка
MAGNET ссылка


Скачать .torrent

18 KB

Статус: проверено DHT
Скачан: торрент - 126 раз, раздача полностью - 6 раз
Размер: 1,7 GB
Оценка:  - (Голосов: 0)
Поблагодарили: 3
Поделиться ссылкой на эту раздачу с друзьями:
В контактеFacebookОдноклассникиTwitterLivejournalМой МирLiveinternet
 

 
Показать сообщения:    


Вы не можете начинать темы
Вы не можете отвечать на сообщения
Вы не можете редактировать свои сообщения
Вы не можете удалять свои сообщения
Вы не можете голосовать в опросах
Вы не можете прикреплять файлы к сообщениям
Вы можете скачивать файлы