Loading...
Error

Скачать Машина / The Machine / La machine (Франсуа Дюпейрон) [1994, фантастика, триллер, DVDRip] [AVO (Гаврилов)] торрент без регистрации

 
Статистика раздачи
Размер:  744 MB   |    Скачан:  116 раз
Сидов:  1  [  0 KB/s  ]  
 
Автор Сообщение

Dinozavr

[] 

Информация о фильме
Название: Машина
Оригинальное название: The Machine / La machine
Год выхода: 1994
Жанр: фантастика, триллер
Режиссер: Франсуа Дюпейрон
В ролях: Жерар Депардье, Натали Бэй, Дидье Бурдон, Наталия Вёрнер, Эрван Байно, Клод Берри, Марк Андреони, Ален Азеро, Вильфред Бенаиш, Кристиан Бюжо

О фильме:
Гениальный психиатр Марк Лекро создаёт фантастическую машину, способную переносить разум одного человека в тело другого и решает при помощи своей машины внедриться в мозг одного из пациентов психиатрической клиники. Он выбирает убийцу, страдающего комплексом агрессии к собственной матери и потому ненавидящем всех женщин.

Эксперимент по изучению психологии маньяка изнутри оборачивается кровью невинных жертв. Марк меняется телами с маньяком и тем самым невольно выпускает на свободу жестокого убийцу, который, пользуясь его внешностью, готовит новые злодеяния.



Страна: Франция, Германия
Студия: France 2 Cinéma, Hachette Première, M6 Films, Prima, Studio Babelsberg
Продолжительность: 01:31:54
Перевод: Авторский | Гаврилов Андрей

Файл
Кодек: XviD 73
Качество: DVDRip | Source: DVD5 (Custom)
Видео: 640x352 (16:9), 930 Kbps, 25.000 fps
Звук: AC-3, 192 Kbps, 2 ch, 48.0 kHz, CBR
Субтитры: нет

SAMPLE

Релиз от: All Films by AMAPAHT
Общее
Полное имя : Mashina.1994.XviD.DVDRip.AMAPAHT.avi
Формат : AVI
Формат/Информация : Audio Video Interleave
Размер файла : 744 Мбайт
Продолжительность : 1 ч. 31 м.
Общий поток : 1132 Кбит/сек
Название фильма : Mashina.1994.XviD.DVDRip.AMAPAHT
Режиссёр : AMAPAHT
Жанр : Drama/Sci-Fi/Thriler
Программа кодирования : VirtualDubMod 1.5.10.3 | www.virtualdub-fr.org || (build 2550/release)
Формат оригинала/Имя : Movie
Примечание : rus AVO [Gavrilov]

Видео
Идентификатор : 0
Формат : MPEG-4 Visual
Профиль формата : Advanced Simple@L5
Параметр BVOP формата : 2
Параметр QPel формата : Нет
Параметр GMC формата : Без точки перехода
Параметр матрицы формата : Выборочная
Идентификатор кодека : XVID
Идентификатор кодека/Подсказка : XviD
Продолжительность : 1 ч. 31 м.
Битрейт : 930 Кбит/сек
Ширина : 640 пикселей
Высота : 352 пикселя
Соотношение сторон : 16:9
Частота кадров : 25,000 кадров/сек
Цветовое пространство : YUV
Субдискретизация насыщенности : 4:2:0
Битовая глубина : 8 бит
Тип развёртки : Прогрессивная
Метод сжатия : С потерями
Бит/(Пиксели*Кадры) : 0.165
Размер потока : 611 Мбайт (82%)
Библиотека кодирования : XviD 73

Аудио
Идентификатор : 1
Формат : AC-3
Формат/Информация : Audio Coding 3
Расширение режима : CM (complete main)
Параметр Endianness формата : Big
Идентификатор кодека : 2000
Продолжительность : 1 ч. 31 м.
Вид битрейта : Постоянный
Битрейт : 192 Кбит/сек
Каналы : 2 канала
Расположение каналов : Front: L R
Частота : 48,0 КГц
Битовая глубина : 16 бит
Метод сжатия : С потерями
Размер потока : 126 Мбайт (17%)
Выравнивание : Разделение по промежуткам
Продолжительность промежутка : 40 мс. (1,00 видеокадр)
Время предзагрузки промежутка : 500 мс.



Скачать Машина.The.Machine.La.machine.(Франсуа.Дюпейрон).[1994.фантастика.триллер.DVDRip].[AVO.(Гаврилов)].torrent без регистрации
Золото ЗОЛОТАЯ РАЗДАЧА! СКАЧАННОЕ НЕ ЗАСЧИТЫВАЕТСЯ! Золото
Дата: Зарегистрирован   [ Тип: внутренний ] Как тут cкачать?
MAGNET ссылка
MAGNET ссылка


Скачать .torrent

15 KB

Статус: проверено DHT
Скачан: торрент - 116 раз, раздача полностью - 44 раз
Размер: 744 MB
Оценка:  - (Голосов: 0)
Поблагодарили: 1
Поделиться ссылкой на эту раздачу с друзьями:
В контактеFacebookОдноклассникиTwitterLivejournalМой МирLiveinternet
 

 
Показать сообщения:    


Вы не можете начинать темы
Вы не можете отвечать на сообщения
Вы не можете редактировать свои сообщения
Вы не можете удалять свои сообщения
Вы не можете голосовать в опросах
Вы не можете прикреплять файлы к сообщениям
Вы можете скачивать файлы