Loading...
Error

Скачать Парижские тайны / Les mysteres de Paris (Андре Юнебель) [1962, боевик, приключения, BDRip] [1080p] [Dub]+[MVO]+[DVO]x2+[Оригинал] торрент без регистрации

 
Статистика раздачи
Размер:  7,76 GB   |    Скачан:  111 раз
Сидов:  1  [  0 KB/s  ]  
 
Автор Сообщение

Marsianka

[] 

Информация о фильме
Название: Парижские тайны
Оригинальное название: Les mysteres de Paris
Год выхода: 1962
Жанр: боевик, приключения
Режиссер: Андре Юнебель
В ролях: Жан Маре, Дани Робен, Джилл Хаворт, Раймон Пеллегрен, Пьер Монди, Ален Декок, Жорж Шамара, Мадлен Барбюле, Рене Гардес, Ги Делорм

О фильме:
Маркиз Рудольф умен, отважен, красив, азартен и великодушен. Он любит женщин, уважает дуэли и часто заключает пари. Одна из таких «невинных» великосветских «забав» приводит к смерти простого горожанина, вдова которого вскоре умирает в нищете, а красавица-дочь исчезает в лабиринте криминальных кварталов французской столицы.

Чувствуя себя виноватым в случившемся с семейством, отважный маркиз клянется найти и спасти девушку. Он одевается простолюдином и отправляется в путь. Все глубже и глубже погружается мужественный Рудольф в «чрево Парижа», полное мрачных тайн, странных сюрпризов и изощренных интриг.



Страна: Франция, Италия
Студия: Da.Ma. Cinematografica, P.A.C.
Продолжительность: 01:45:57
Перевод: Советский дубляж + Профессиональный (многоголосый, закадровый) 5 канал + Профессиональный (двухголосый, закадровый) Светла + Профессиональный (двухголосый, закадровый) ТВЦ + Оригинал

Файл
Кодек: x264
Качество: BDRip 1080p (источник: HDCLUB / Blu-ray Disc / 1080p)
Видео: 1920х816 (2.35:1), 9337 Kbps, 24.000 fps, 0.248 bit/pixel
Аудио #1: 48.0 kHz, AC3 Dolby Digital, 2/0 (L,R) ch, 192 kbps [Советский дубляж]
Аудио #2: 48.0 kHz, AC3 Dolby Digital, 2/0 (L,R) ch, 192 kbps [Многоголосый, 5 канал]
Аудио #3: 48.0 kHz, AC3 Dolby Digital, 2/0 (L,R) ch, 192 kbps [Двухголосый, Светла]
Аудио #4: 48.0 kHz, AC3 Dolby Digital, 2/0 (L,R) ch, 192 kbps [Двухголосый, ТВЦ]
Аудио #5: 48.0 kHz, AC3 Dolby Digital, 1/0 (C) ch, 384 kbps [Оригинал, Французский]
Субтитры: нет
Семпл
x264 [info]: frame I:914 Avg QP:16.27 size:168309
x264 [info]: frame P:31314 Avg QP:19.08 size: 88947
x264 [info]: frame B:120349 Avg QP:20.67 size: 37225
General
Unique ID : 236407356174062356553696170775825677885 (0xB1DA668FE0C6B06AAC0FA139AF9CFE3D)
Complete name : E:Les.mysteres.de.Paris.1962.x264.BDRip.1080p.mkv
Format : Matroska
Format version : Version 2
File size : 7.76 GiB
Duration : 1h 45mn
Overall bit rate : 10.5 Mbps
Encoded date : UTC 2014-01-23 18:22:32
Writing application : mkvmerge v5.8.0 ('No Sleep / Pillow') built on Sep 2 2012 15:37:04
Writing library : libebml v1.2.3 + libmatroska v1.3.0

Video
ID : 1
Format : AVC
Format/Info : Advanced Video Codec
Format profile : High@L4.1
Format settings, CABAC : Yes
Format settings, ReFrames : 5 frames
Codec ID : V_MPEG4/ISO/AVC
Duration : 1h 45mn
Bit rate : 9 337 Kbps
Width : 1 920 pixels
Height : 816 pixels
Display aspect ratio : 2.35:1
Frame rate mode : Constant
Frame rate : 24.000 fps
Color space : YUV
Chroma subsampling : 4:2:0
Bit depth : 8 bits
Scan type : Progressive
Bits/(Pixel*Frame) : 0.248
Stream size : 6.76 GiB (87%)
Writing library : x264 core 140 r2377 1ca7bb9
Encoding settings : cabac=1 / ref=5 / deblock=1:-3:-3 / analyse=0x3:0x133 / me=tesa / subme=11 / psy=1 / psy_rd=1.00:0.00 / mixed_ref=1 / me_range=32 / chroma_me=1 / trellis=2 / 8x8dct=1 / cqm=0 / deadzone=21,11 / fast_pskip=0 / chroma_qp_offset=-2 / threads=12 / lookahead_threads=2 / sliced_threads=0 / nr=0 / decimate=0 / interlaced=0 / bluray_compat=0 / constrained_intra=0 / bframes=8 / b_pyramid=2 / b_adapt=2 / b_bias=0 / direct=3 / weightb=0 / open_gop=0 / weightp=2 / keyint=240 / keyint_min=24 / scenecut=40 / intra_refresh=0 / rc=2pass / mbtree=0 / bitrate=9337 / ratetol=1.0 / qcomp=0.60 / qpmin=0 / qpmax=69 / qpstep=4 / cplxblur=20.0 / qblur=0.5 / ip_ratio=1.40 / pb_ratio=1.30 / aq=1:1.00
Language : French
Default : Yes
Forced : No

Audio #1
ID : 2
Format : AC-3
Format/Info : Audio Coding 3
Mode extension : CM (complete main)
Format settings, Endianness : Big
Codec ID : A_AC3
Duration : 1h 45mn
Bit rate mode : Constant
Bit rate : 192 Kbps
Channel count : 2 channels
Channel positions : Front: L R
Sampling rate : 48.0 KHz
Bit depth : 16 bits
Compression mode : Lossy
Stream size : 146 MiB (2%)
Title : Советский дубляж
Language : Russian
Default : Yes
Forced : No

Audio #2
ID : 3
Format : AC-3
Format/Info : Audio Coding 3
Mode extension : CM (complete main)
Format settings, Endianness : Big
Codec ID : A_AC3
Duration : 1h 45mn
Bit rate mode : Constant
Bit rate : 192 Kbps
Channel count : 2 channels
Channel positions : Front: L R
Sampling rate : 48.0 KHz
Bit depth : 16 bits
Compression mode : Lossy
Stream size : 146 MiB (2%)
Title : Многоголосый, 5 канал
Language : Russian
Default : No
Forced : No

Audio #3
ID : 4
Format : AC-3
Format/Info : Audio Coding 3
Format profile : Dolby Digital
Mode extension : CM (complete main)
Format settings, Endianness : Big
Codec ID : A_AC3
Duration : 1h 45mn
Bit rate mode : Constant
Bit rate : 192 Kbps
Channel count : 2 channels
Channel positions : Front: L R
Sampling rate : 48.0 KHz
Bit depth : 16 bits
Compression mode : Lossy
Stream size : 146 MiB (2%)
Title : Двухголосый, Светла
Language : Russian
Default : No
Forced : No

Audio #4
ID : 5
Format : AC-3
Format/Info : Audio Coding 3
Mode extension : CM (complete main)
Format settings, Endianness : Big
Codec ID : A_AC3
Duration : 1h 45mn
Bit rate mode : Constant
Bit rate : 192 Kbps
Channel count : 2 channels
Channel positions : Front: L R
Sampling rate : 48.0 KHz
Bit depth : 16 bits
Compression mode : Lossy
Stream size : 146 MiB (2%)
Title : Двухголосый, ТВЦ
Language : Russian
Default : No
Forced : No

Audio #5
ID : 6
Format : AC-3
Format/Info : Audio Coding 3
Mode extension : CM (complete main)
Format settings, Endianness : Big
Codec ID : A_AC3
Duration : 1h 45mn
Bit rate mode : Constant
Bit rate : 384 Kbps
Channel count : 1 channel
Channel positions : Front: C
Sampling rate : 48.0 KHz
Bit depth : 16 bits
Compression mode : Lossy
Stream size : 291 MiB (4%)
Title : Оригинал, Французский
Language : French
Default : No
Forced : No

Menu
00:00:00.000 : fr:
00:07:20.416 : fr:
00:13:18.625 : fr:
00:19:58.458 : fr:
00:29:19.875 : fr:
00:42:49.583 : fr:
00:51:46.666 : fr:
01:01:29.083 : fr:
01:09:53.416 : fr:
01:18:58.583 : fr:
01:29:55.875 : fr:
01:40:43.750 : fr:



Скачать Парижские.тайны.Les.mysteres.de.Paris.(Андре.Юнебель).[1962.боевик.приключения.BDRip].[1080p].[Dub]+[MVO]+[DVO]x2+[Оригинал].torrent без регистрации
Золото ЗОЛОТАЯ РАЗДАЧА! СКАЧАННОЕ НЕ ЗАСЧИТЫВАЕТСЯ! Золото
Дата: Зарегистрирован   [ Тип: внутренний ] Как тут cкачать?
MAGNET ссылка
MAGNET ссылка


Скачать .torrent

20 KB

Статус: проверено DHT
Скачан: торрент - 111 раз, раздача полностью - 6 раз
Размер: 7,76 GB
Оценка:  - (Голосов: 0)
Поблагодарили: 0
Поделиться ссылкой на эту раздачу с друзьями:
В контактеFacebookОдноклассникиTwitterLivejournalМой МирLiveinternet
 

 
Показать сообщения:    


Вы не можете начинать темы
Вы не можете отвечать на сообщения
Вы не можете редактировать свои сообщения
Вы не можете удалять свои сообщения
Вы не можете голосовать в опросах
Вы не можете прикреплять файлы к сообщениям
Вы можете скачивать файлы