Loading...
Error

Скачать Гудини / Houdini (Пен Деншэм / Pen Densham) [1998 г., Драма, VHSRip] [MVO] (Варус Видео) торрент без регистрации

 
Статистика раздачи
Размер:  1,38 GB   |    Скачан:  146 раз
Сидов:  1  [  0 KB/s  ]  
 
Автор Сообщение

leon030982

[] 

Гудини / Houdini


Год выпуска: 1998
Страна: США
Жанр: Драма
Продолжительность: 01:30:55
Перевод: Профессиональный (многоголосый, закадровый)[Варус Видео]
Русские субтитры: нет

Режиссер: Пен Деншэм / Pen Densham

В ролях: Джонатон Шэк /Johnathon Schaech/, Стэйси Эдвардс /Stacy Edwards/, Пол Сорвино /Paul Sorvino/, Риа Перлмэн /Rhea Perlman/, Дэвид Уорнер /David Warner/, Марк Руффало /Mark Ruffalo/, Грэйс Забриски /Grace Zabriskie/, Рон Перлман /Ron Perlman/, Карл Мэкинен /Karl Makinen/, Джуди Гисон /Judy Geeson/, Фрэнк МакРэй /Frank McRae/, Джордж Сигал /George Segal

Описание: Традиционная и приятная биографическая драма о Гарри Гудини, самом знаменитом фокуснике XX века. Фильм рассказывает о нем самом, его близких, любви, жизненном пути к славе и бессмертию. Истории восхождения от бедности и безызвестности всегда доставляют удовольствие зрителю. Создатели фильма весьма ответственно подошли к воссозданию атмосферы начала века - костюмы, декорации, образы героев очень точны.



Качество: VHSRip
Формат: AVI
Видео кодек: DivX
Аудио кодек: AC3
Видео: 640x480 (1.33:1), 25 fps, DivX Codec 5.x or 6.x ~1942 kbps avg, 0.25 bit/pixel
Аудио: 48 kHz, AC3 Dolby Digital, 2/0 (L,R) ch, ~224.00 kbps avg
General
Complete name : E:\INTERNET\HOUDINI_Varus.avi
Format : AVI
Format/Info : Audio Video Interleave
File size : 1.38 GiB
Duration : 1h 30mn
Overall bit rate : 2 176 Kbps
Writing library : VirtualDub build 18160/release

Video
ID : 0
Format : MPEG-4 Visual
Format settings, BVOP : 1
Format settings, QPel : No
Format settings, GMC : No warppoints
Format settings, Matrix : Default (H.263)
Muxing mode : Packed bitstream
Codec ID : DX50
Codec ID/Hint : DivX 5
Duration : 1h 30mn
Bit rate : 1 943 Kbps
Width : 640 pixels
Height : 480 pixels
Display aspect ratio : 4:3
Frame rate : 25.000 fps
Color space : YUV
Chroma subsampling : 4:2:0
Bit depth : 8 bits
Scan type : Progressive
Compression mode : Lossy
Bits/(Pixel*Frame) : 0.253
Stream size : 1.23 GiB (89%)
Writing library : DivX 6.8.3-6.8.4 (UTC 2008-06-07)

Audio
ID : 1
Format : AC-3
Format/Info : Audio Coding 3
Mode extension : CM (complete main)
Codec ID : 2000
Duration : 1h 30mn
Bit rate mode : Constant
Bit rate : 224 Kbps
Channel(s) : 2 channels
Channel positions : Front: L R
Sampling rate : 48.0 KHz
Bit depth : 16 bits
Compression mode : Lossy
Stream size : 146 MiB (10%)
Alignment : Aligned on interleaves
Interleave, duration : 40 ms (1.00 video frame)
Interleave, preload duration : 512 ms
Рип с лицензионной видеокассеты от Варус Видео записанной с звуком HI-FI STEREO.



Скачать Гудини.Houdini.(Пен.Деншэм.Pen.Densham).[1998.г.Драма.VHSRip].[MVO].(Варус.Видео).torrent без регистрации
Золото ЗОЛОТАЯ РАЗДАЧА! СКАЧАННОЕ НЕ ЗАСЧИТЫВАЕТСЯ! Золото
Дата: Зарегистрирован   [ Тип: внутренний ] Как тут cкачать?
MAGNET ссылка
MAGNET ссылка


Скачать .torrent

14 KB

Статус: проверено DHT
Скачан: торрент - 146 раз, раздача полностью - 12 раз
Размер: 1,38 GB
Оценка:  - (Голосов: 0)
Поблагодарили: 1
Поделиться ссылкой на эту раздачу с друзьями:
В контактеFacebookОдноклассникиTwitterLivejournalМой МирLiveinternet
 

 
Показать сообщения:    


Вы не можете начинать темы
Вы не можете отвечать на сообщения
Вы не можете редактировать свои сообщения
Вы не можете удалять свои сообщения
Вы не можете голосовать в опросах
Вы не можете прикреплять файлы к сообщениям
Вы можете скачивать файлы