Loading...
Error

Скачать Призрак замка Моррисвиль / Fantom Morrisvillu (Борживой Земан) [1966, комедия, DVDRip] [Dub]+[MVO] торрент без регистрации

 
Статистика раздачи
Размер:  1,46 GB   |    Скачан:  107 раз

Полного источника не было: 26 минут

 
Автор Сообщение

Marsianka

[] 


Название: Призрак замка Моррисвиль
Год выпуска: 1966
Страны: Чехословакия
Жанр: комедия
Продолжительность: 01:27:12
Перевод: Профессиональный (дублированный)
Перевод: 2 Профессиональный (многоголосый закадровый)
Субтитры: нет
Режиссер: Борживой Земан
Сценарий: Франтишек Влчек, Борживой Земан
Оператор: Иржи Тарантик
Композитор: Юлиус Калаш
Художник: Богумил Покорны, Ян Скалицкий, Джозеф Дворак, ...
Монтаж: Йозеф Добржиховский

В ролях: Ольдржих Новы, Квета Фиалова, Вит Ольмер, Ярослав Марван, Зузана Бурианова, Рудольф Дейл, Власта Фабианова, Франтишек Филиповски,Любомир Костелка,Вальдемар Матушка


Описание: Владелец популярного журнала о светской жизни дает репортеру уголовной хроники Алену Пинкертону весьма странное задание. Честолюбивый красавец должен отправиться в замок Моррисвилль, где состоится бракосочетание сэра Морриса Ганнибала и леди Кларенс Гамильтон.Молодой репортер решительно настроен написать хороший материал, и его не пугают даже зловещие угрозы в адрес гостей мероприятия. Наоборот атмосфера опасности и тайны только подогревает любопытство деятельного журналиста. Детективная интрига приобретает особую остроту, когда из тюрьмы под покровом густого тумана совершает дерзкий побег главарь бандитской шайки Мануэль Диас. Обаятельный бандит состоит в шокирующе-близких отношениях с будущей хозяйкой замка, и он намерен использовать это обстоятельство в своих грязных корыстных целях. Мошенник охотится за сокровищами, Призрак охотится за ним, а старинный замок Моррисвилль неохотно раскрываетсвои секреты мужественному репортеру с именем и призванием «сыщика экстра-класса».




Формат:AVI
Видео кодек: XviD
Аудио кодек: AC3
Видео: 720x544 (4:3), 25.000 fps, XviD, 2 005 Kbps
Аудио: Аудио #1: AC3, 192 Kbps, 48.0 KHz, 2 ch
Аудио #2: AC3, 192 Kbps, 48.0 KHz, 2 ch


General
Complete name : Призрак замка Моррисвилль.1966 г.avi
Format : AVI
Format/Info : Audio Video Interleave
File size : 1.46 GiB
Duration : 1h 27mn
Overall bit rate : 2 403 Kbps
Director : bm11
Writing application : VirtualDubMod 1.5.10.2 (build 2540/release)

Video
ID : 0
Format : MPEG-4 Visual
Format profile : Advanced Simple@L5
Format settings, BVOP : Yes
Format settings, QPel : No
Format settings, GMC : No warppoints
Format settings, Matrix : Custom
Codec ID : XVID
Codec ID/Hint : XviD
Duration : 1h 27mn
Bit rate : 2 005 Kbps
Width : 720 pixels
Height : 544 pixels
Display aspect ratio : 4:3
Frame rate : 25.000 fps
Color space : YUV
Chroma subsampling : 4:2:0
Bit depth : 8 bits
Scan type : Progressive
Bits/(Pixel*Frame) : 0.205
Stream size : 1.22 GiB (83%)
Writing library : XviD 65

Audio #1
ID : 1
Format : AC-3
Format/Info : Audio Coding 3
Mode extension : CM (complete main)
Codec ID : 2000
Duration : 1h 27mn
Bit rate mode : Constant
Bit rate : 192 Kbps
Channel(s) : 2 channels
Channel positions : Front: L R
Sampling rate : 48.0 KHz
Bit depth : 16 bits
Stream size : 120 MiB (8%)
Alignment : Split accross interleaves
Interleave, duration : 40 ms (1.00 video frame)
Interleave, preload duration : 500 ms

Audio #2
ID : 2
Format : AC-3
Format/Info : Audio Coding 3
Mode extension : CM (complete main)
Codec ID : 2000
Duration : 1h 27mn
Bit rate mode : Constant
Bit rate : 192 Kbps
Channel(s) : 2 channels
Channel positions : Front: L R
Sampling rate : 48.0 KHz
Bit depth : 16 bits
Stream size : 120 MiB (8%)
Alignment : Split accross interleaves
Interleave, duration : 40 ms (1.00 video frame)
Interleave, preload duration : 500 ms



Скачать Призрак.замка.Моррисвиль.Fantom.Morrisvillu.(Борживой.Земан).[1966.комедия.DVDRip].[Dub]+[MVO].torrent без регистрации
Золото ЗОЛОТАЯ РАЗДАЧА! СКАЧАННОЕ НЕ ЗАСЧИТЫВАЕТСЯ! Золото
Дата: Зарегистрирован   [ Тип: внутренний ] Как тут cкачать?
MAGNET ссылка
MAGNET ссылка


Скачать .torrent

15 KB

Статус: проверено DHT
Скачан: торрент - 107 раз, раздача полностью - 62 раз
Размер: 1,46 GB
Оценка:  - (Голосов: 0)
Поблагодарили: 2
Поделиться ссылкой на эту раздачу с друзьями:
В контактеFacebookОдноклассникиTwitterLivejournalМой МирLiveinternet
 

 
Показать сообщения:    


Вы не можете начинать темы
Вы не можете отвечать на сообщения
Вы не можете редактировать свои сообщения
Вы не можете удалять свои сообщения
Вы не можете голосовать в опросах
Вы не можете прикреплять файлы к сообщениям
Вы можете скачивать файлы