Loading...
Error

Скачать Любовь с подходящим незнакомцем / Love with the Proper Stranger (Роберт Маллиган / Robert Mulligan) [1963, драма, мелодрама, комедия, WEB-DLRip] [AVO] (Юрий Сербин) торрент без регистрации

 
Статистика раздачи
Размер:  1,37 GB   |    Скачан:  113 раз
Сидов:  1  [  0 KB/s  ]  
 
Автор Сообщение

leon030982

[] 

Любовь с подходящим незнакомцем / Love with the Proper Stranger



Год выпуска: 1963
Страна: США
Студия: Paramount Pictures
Жанр: драма, мелодрама, комедия
Продолжительность: 01:40:14
Перевод: Авторский (одноголосный, закадровый)[Юрий Сербин]
Субтитры: нет
Режиссер: Роберт Маллиган / Robert Mulligan
В ролях: Стив Маккуин, Натали Вуд, Эди Адамс, Хершел Бернарди, Энн Хегира
Описание: Энджи Россини (Натали Вуд), продавщица из сети универмагов "Мейси", делает неожиданное открытие: она, итальянская католичка, беременна, причем от человека, с которым провела всего одну ночь! Чтобы скрыть тайну от семьи и двух братьев, которые ревностно следят за ее благочестием, Энджи с твердым намерением сделать аборт отправляется на поиски того самого человека на одну ночь - бесшабашного музыканта Рокки Папасано (Стив Маккуин). Эта встреча таит в себе массу сюрпризов…


Качество видео: WEB-DLRip (Исх. WEB-DL>DVD5 (Custom)]
Формат: AVI
Видео кодек: XviD
Аудио кодек: AC3
Видео: 720x400 (1.80:1), 23.976 fps, XviD build 50 ~1688 kbps avg, 0.24 bit/pixel
Аудио: 48 kHz, AC3 Dolby Digital, 2/0 (L,R) ch, ~256.00 kbps avg
Огромное спасибо людям благодаря которым состоялся перевод и озвучка данного фильма!!!
c рутрекера: denis_mgn_1987, Alec Storm, Atrox777, jasenka, SamsonSS, Lafajet, sever-, Магда, zeleniydzhan, eagle64
с клуба е180: Nadoelo, xerman13, Jiraya87, luka69, Guyver

За исходный WEB-DL>DVD5 (Custom) спасибо Alec Storm с рутрекера!

Цитата:

За перевод и озвучку спасибо - Юрию Сербину
За реавторинг диска спасибо - Нордер
За исходник спасибо - funny77
За русские сабы - Ийон_Тихий
Автор рипа: killermax2013
Оскар, 1964 год
Номинации (5):
Лучшая женская роль (Натали Вуд)
Лучший оригинальный сценарий
Лучшая работа оператора (ч/б фильмы)
Лучшая работа художника (ч/б фильмы)
Лучшая работа художника по костюмам (ч/б фильмы)


Золотой глобус, 1964 год
Номинации (2):
Лучшая женская роль (драма) (Натали Вуд)
Лучшая мужская роль (драма) (Стив МакКуин)
General
Complete name : E:\Love with the Proper Stranger.1963.WEB-DLRip.[AVO] (SERBIN).avi
Format : AVI
Format/Info : Audio Video Interleave
File size : 1.37 GiB
Duration : 1h 40mn
Overall bit rate : 1 954 Kbps
Writing application : VirtualDubMod 1.5.10.3 | www.virtualdub-fr.org || (build 2550/release)
Writing library : VirtualDubMod build 2550/release

Video
ID : 0
Format : MPEG-4 Visual
Format profile : Advanced Simple@L5
Format settings, BVOP : 1
Format settings, QPel : No
Format settings, GMC : No warppoints
Format settings, Matrix : Default (MPEG)
Codec ID : DX50
Codec ID/Hint : DivX 5
Duration : 1h 40mn
Bit rate : 1 689 Kbps
Width : 720 pixels
Height : 400 pixels
Display aspect ratio : 16:9
Frame rate : 23.976 fps
Color space : YUV
Chroma subsampling : 4:2:0
Bit depth : 8 bits
Scan type : Progressive
Compression mode : Lossy
Bits/(Pixel*Frame) : 0.245
Stream size : 1.18 GiB (86%)
Writing library : XviD 1.2.1 (UTC 2008-12-04)

Audio
ID : 1
Format : AC-3
Format/Info : Audio Coding 3
Mode extension : CM (complete main)
Codec ID : 2000
Duration : 1h 40mn
Bit rate mode : Constant
Bit rate : 256 Kbps
Channel(s) : 2 channels
Channel positions : Front: L R
Sampling rate : 48.0 KHz
Bit depth : 16 bits
Compression mode : Lossy
Stream size : 184 MiB (13%)
Alignment : Split accross interleaves
Interleave, duration : 42 ms (1.00 video frame)
Interleave, preload duration : 500 ms



Скачать Любовь.с.подходящим.незнакомцем.Love.with.the.Proper.Stranger.(Роберт.Маллиган.Robert.Mulligan).[1963.драма.мелодрама.комедия.WEB-DLRip].[AVO].(Юрий.Сербин).torrent без регистрации
Золото ЗОЛОТАЯ РАЗДАЧА! СКАЧАННОЕ НЕ ЗАСЧИТЫВАЕТСЯ! Золото
Дата: Зарегистрирован   [ Тип: внутренний ] Как тут cкачать?
MAGNET ссылка
MAGNET ссылка


Скачать .torrent

14 KB

Статус: проверено DHT
Скачан: торрент - 113 раз, раздача полностью - 28 раз
Размер: 1,37 GB
Оценка:  - (Голосов: 0)
Поблагодарили: 0
Поделиться ссылкой на эту раздачу с друзьями:
В контактеFacebookОдноклассникиTwitterLivejournalМой МирLiveinternet
 

 
Показать сообщения:    


Вы не можете начинать темы
Вы не можете отвечать на сообщения
Вы не можете редактировать свои сообщения
Вы не можете удалять свои сообщения
Вы не можете голосовать в опросах
Вы не можете прикреплять файлы к сообщениям
Вы можете скачивать файлы