Loading...
Error

Скачать Карнавал душ / Carnival of Souls (Херк Харви) [1962, дикая игра светотени, инди-шедевр, саспенс, триллер, DVDRip][DVO]+[Sub] торрент без регистрации

 
Статистика раздачи
Размер:  800 MB   |    Скачан:  106 раз
Сидов:  1  [  0 KB/s  ]  
 
Автор Сообщение

Marsianka

[] 


Название:Карнавал душ
Год выпуска:1962
Страна: США
Слоган: «She Was A Stranger Among The Living»
Жанры: дикая игра светотени, инди-шедевр, саспенс, триллер
Продолжительность: 01:29:45
Перевод: Профессиональный (двухголосый закадровый)
Русские субтитры: есть (Перевод hmafa)
Режиссер: Херк Харви
Сценарий: Джон Клиффорд, Херк Харви
Продюсер: Херк Харви
Оператор: Морис Пратер
Композитор : Джин Мур
Монтаж: Билл де Жарнетт, Дэн Палмквист

В ролях: Кендес Хиллигосс / Candace Hilligoss (Mary Henry, $ 2 500 ), Фрэнсис Фейст / Frances Feist (Mrs. Thomas, Landlady), Сидни Бергер / Sidney Berger (John Linden), Арт Эллисон / Art Ellison (Minister), Стэн Левитт / Stan Levitt (Dr. Samuels), Том Макгиннис / Tom McGinnis (Organ Factory Boss), Форбс Колдуэлл / Forbes Caldwell (Organ Factory Worker), Дэн Палмквист / Dan Palmquist (Gas Station Attendant)

Описание: Автомобильная катастрофа. Две машины падают с моста в реку. В живых остается только юная Мэри Генри. Она переезжает в маленький городок и хочет начать новую жизнь в качестве органиста местной церкви. Вскоре она начинает замечать странные вещи: нормальные люди в городе, кажется, не видят ее, а приветствуют только бледнолицые типы, которые выглядят мертвыми и прогуливаются в заброшенном парке за городом.


Рейтинг MPAA: Рекомендуется присутствие родителей


Качество: DVDRip
Формат: AVI
Видео кодек: XviD
Аудио кодек: MP3
Видео: 576x432 (1.33:1), 23.976 fps, XviD Final 1.0.3 (build 37) ~1160 kbps avg, 0.19 bit/pixel

Аудио: 48 kHz, MPEG Layer 3, 2 ch, ~128.00 kbps avg Русская дорожка
Аудио: 48 kHz, MPEG Layer 3, 1 ch, ~128.00 kbps avg Английская дорожка

Format : AVI
Format/Info : Audio Video Interleave
File size : 799 MiB
Duration : 1h 18mn
Overall bit rate : 1 431 Kbps
Writing application : VirtualDubMod 1.5.10.2 (build 2540/release)
Writing library : VirtualDubMod build 2540/release

Video
ID : 0
Format : MPEG-4 Visual
Format profile : Advanced Simple@L5
Format settings, BVOP : Yes
Format settings, QPel : No
Format settings, GMC : No warppoints
Format settings, Matrix : Default (H.263)
Codec ID : XVID
Codec ID/Hint : XviD
Duration : 1h 18mn
Bit rate : 1 161 Kbps
Width : 576 pixels
Height : 432 pixels
Display aspect ratio : 4:3
Frame rate : 23.976 fps
Color space : YUV
Chroma subsampling : 4:2:0
Bit depth : 8 bits
Scan type : Progressive
Compression mode : Lossy
Bits/(Pixel*Frame) : 0.195
Stream size : 649 MiB (81%)
Writing library : XviD 1.0.3 (UTC 2004-12-20)

Audio #1
ID : 1
Format : MPEG Audio
Format version : Version 1
Format profile : Layer 3
Mode : Joint stereo
Mode extension : MS Stereo
Codec ID : 55
Codec ID/Hint : MP3
Duration : 1h 18mn
Bit rate mode : Constant
Bit rate : 128 Kbps
Channel count : 2 channels
Sampling rate : 48.0 KHz
Compression mode : Lossy
Stream size : 71.5 MiB (9%)
Alignment : Aligned on interleaves
Interleave, duration : 42 ms (1.00 video frame)
Interleave, preload duration : 504 ms

Audio #2
ID : 2
Format : MPEG Audio
Format version : Version 1
Format profile : Layer 3
Codec ID : 55
Codec ID/Hint : MP3
Duration : 1h 18mn
Bit rate mode : Constant
Bit rate : 128 Kbps
Channel count : 1 channel
Sampling rate : 48.0 KHz
Compression mode : Lossy
Stream size : 71.5 MiB (9%)
Alignment : Split accross interleaves
Interleave, duration : 42 ms (1.00 video frame)
Interleave, preload duration : 500 ms
Writing library : LAME3.96.1




Скачать Карнавал.душ.Carnival.of.Souls.(Херк.Харви).[1962.дикая.игра.светотени.инди-шедевр.саспенс.триллер.DVDRip][DVO]+[Sub].torrent без регистрации
Золото ЗОЛОТАЯ РАЗДАЧА! СКАЧАННОЕ НЕ ЗАСЧИТЫВАЕТСЯ! Золото
Дата: Зарегистрирован   [ Тип: внутренний ] Как тут cкачать?
MAGNET ссылка
MAGNET ссылка


Скачать .torrent

17 KB

Статус: проверено DHT
Скачан: торрент - 106 раз, раздача полностью - 3 раз
Размер: 800 MB
Оценка:  - (Голосов: 0)
Поблагодарили: 0
Поделиться ссылкой на эту раздачу с друзьями:
В контактеFacebookОдноклассникиTwitterLivejournalМой МирLiveinternet
 

 
Показать сообщения:    


Вы не можете начинать темы
Вы не можете отвечать на сообщения
Вы не можете редактировать свои сообщения
Вы не можете удалять свои сообщения
Вы не можете голосовать в опросах
Вы не можете прикреплять файлы к сообщениям
Вы можете скачивать файлы