Loading...
Error

Скачать Арн: Рыцарь-тамплиер / Arn - Tempelriddaren (Петер Флинт / Peter Flinth) [2007, боевик, драма, мелодрама, BDRip] [MVO] (Лицензия) торрент без регистрации

 
Статистика раздачи
Размер:  1,47 GB   |    Скачан:  144 раза
Сидов:  1  [  0 KB/s  ]  
 
Автор Сообщение

leon030982

[] 

Арн: Рыцарь-тамплиер / Arn - Tempelriddaren

Год выпуска: 2007
Страна: Германия, Дания, Швеция, Финляндия, Великобритания, Норвегия
Слоган: «In a Time of War and Betrayal, a Hero Will Rise»
Жанр: боевик, драма, мелодрама, приключения, военный
Продолжительность: 02:18:25
Перевод: Профессиональный (многоголосый, закадровый) [Лицензия]
Русские субтитры: нет

Режиссер: Петер Флинт / Peter Flinth

В ролях: Йоаким Наттерквист (Arn Magnusson), София Хелин (Cecilia Algotsdotter), Стеллан Скарсгард (Birger Brosa), Микаэл Нюквист (Magnus Folkesson), Mirja Turestedt (Sigrid), Морган Аллинг (Eskil Magnusson), Свен-Бертиль Таубе (Bishop Bengt), Биби Андерссон (Mother Rikissa), Fanny Risberg (Cecilia 'Blanka' Ulfsdotter), Густаф Скарсгард (King Knut Eriksson), Саймон Кэллоу (Father Henry), Венсан Перес (Brother Guilbert)
Описание: Арн, сын высокопоставленного шведского дворянина, заканчивает свое монастырское обучение и, в наказание за свою запретную любовь, отправляется в Священные Земли в качестве рыцаря-тамплиера. Там ему суждено принять участие в битве при Хатине и других событиях, связанных с тяжёлыми временами Иерусалимского королевства...


Раздача от группы:
Качество: BDRip
Формат: AVI
Видео кодек: XviD
Аудио кодек: AC3
Видео: 720x304 (2.37:1), 24.000 fps, XviD build 50 ~1123 kbps avg, 0.21 bit/pixel
Аудио: 48 kHz, AC3 Dolby Digital, 3/2 (L,C,R,l,r) + LFE ch, ~384.00 kbps avg
Король Эрик Йедвардссон был убит, согласно поздним шведским источникам, не Карлом Сверкерссоном, а датчанином Магнусом Хенриксеном, имевшим притязания на шведский трон.
В заключительной части фильма тамплиеры под умелым командованием Арна побеждают Саладина. На самом деле, основную роль в победе при Монжизаре (25 ноября 1177) сыграли силы Иерусалимского королевства под предводительством юного короля Балдуина IV и Рено де Шатийона.
Великим магистром ордена тамплиеров в описываемое время (1177 год) был не Арно де Торроха, как показано в фильме, а Одо де Сент-Аман.
Шведские части фильма снимались в основном в провинции Вестергётланд, в то время как зарубежные сцены сняты в Марокко и Шотландии.
General
Complete name : E:\INTERNET\Àðí Ðûöàðü-òàìïëèåð.2007.BDRip.avi
Format : AVI
Format/Info : Audio Video Interleave
File size : 1.47 GiB
Duration : 2h 18mn
Overall bit rate : 1 517 Kbps
Writing application : VirtualDubMod 1.5.10.2 (build 2540/release)
Writing library : VirtualDubMod build 2540/release

Video
ID : 0
Format : MPEG-4 Visual
Format profile : Advanced Simple@L5
Format settings, BVOP : 1
Format settings, QPel : No
Format settings, GMC : No warppoints
Format settings, Matrix : Custom
Codec ID : XVID
Codec ID/Hint : XviD
Duration : 2h 18mn
Bit rate : 1 124 Kbps
Width : 720 pixels
Height : 304 pixels
Display aspect ratio : 2.35:1
Frame rate : 24.000 fps
Color space : YUV
Chroma subsampling : 4:2:0
Bit depth : 8 bits
Scan type : Progressive
Compression mode : Lossy
Bits/(Pixel*Frame) : 0.214
Stream size : 1.09 GiB (74%)
Writing library : XviD 1.2.1 (UTC 2008-12-04)

Audio
ID : 1
Format : AC-3
Format/Info : Audio Coding 3
Mode extension : CM (complete main)
Codec ID : 2000
Duration : 2h 18mn
Bit rate mode : Constant
Bit rate : 384 Kbps
Channel(s) : 6 channels
Channel positions : Front: L C R, Side: L R, LFE
Sampling rate : 48.0 KHz
Bit depth : 16 bits
Compression mode : Lossy
Stream size : 380 MiB (25%)
Alignment : Split accross interleaves
Interleave, duration : 42 ms (1.00 video frame)
Interleave, preload duration : 500 ms



Скачать Арн.Рыцарь-тамплиер.Arn.-.Tempelriddaren.(Петер.Флинт.Peter.Flinth).[2007.боевик.драма.мелодрама.BDRip].[MVO].(Лицензия).torrent без регистрации
Золото ЗОЛОТАЯ РАЗДАЧА! СКАЧАННОЕ НЕ ЗАСЧИТЫВАЕТСЯ! Золото
Дата: Зарегистрирован   [ Тип: внутренний ] Как тут cкачать?
MAGNET ссылка
MAGNET ссылка


Скачать .torrent

15 KB

Статус: проверено DHT
Скачан: торрент - 144 раз, раздача полностью - 55 раз
Размер: 1,47 GB
Оценка:  4 (Голосов: 1)
Поблагодарили: 2
Поделиться ссылкой на эту раздачу с друзьями:
В контактеFacebookОдноклассникиTwitterLivejournalМой МирLiveinternet
 

 
Показать сообщения:    


Вы не можете начинать темы
Вы не можете отвечать на сообщения
Вы не можете редактировать свои сообщения
Вы не можете удалять свои сообщения
Вы не можете голосовать в опросах
Вы не можете прикреплять файлы к сообщениям
Вы можете скачивать файлы