Loading...
Error

Скачать Арн: Объединенное королевство / Arn - Riket vid vagens slut (Петер Флинт) [2008, боевик, драма, мелодрама, приключения, военный, история, BDRip] [MVO] (Kravec) торрент без регистрации

 
Статистика раздачи
Размер:  1,46 GB   |    Скачан:  107 раз
Сидов:  1  [  0 KB/s  ]  
 
Автор Сообщение

leon030982

[] 

Арн: Объединенное королевство / Arn - Riket vid vägens slut


Год выпуска: 2008
Страна: Германия, Дания, Швеция, Финляндия, Великобритания, Норвегия
Жанр: боевик, драма, мелодрама, приключения, военный, история
Продолжительность: 02:07:36
Перевод: Профессиональный (многоголосый, закадровый)[Kravec]
Русские субтитры: нет

Режиссер: Петер Флинт / Peter Flinth

В ролях: Йоаким Наттерквист, София Хелин, Стеллан Скарсгард, Биби Андерссон, Густаф Скарсгард, Юэль Киннаман, Фанни Рисберг, Андерс Баасмо Кристиансен, Якоб Седергрен, Николас Болтон, Милинд Соман

Описание: Второй фильм о вымышленном шведском рыцаре тамплиеров Арне Магнассоне. История его жизни развивается в Святой земле во времена Саладина, битвы при Хатине и других событий, связанных с тяжёлыми временами Иерусалимского королевства. После всех трудностей, сомнений и испытаний, Арн оставляет Иерусалим совсем другим человеком, возвращается в Швецию измученную феодальными распрями, к своей семье погрязшей в этих дрязгах и к любви своей юности, Сесилии, с которой они были разлучены 20 лет…



Качество: BDRip
Формат: AVI
Видео кодек: XviD
Аудио кодек: AC3
Видео: 720x304 (2.37:1), 24 fps, XviD build 65 ~1176 kbps avg, 0.22 bit/pixel
Аудио: 48 kHz, AC3 Dolby Digital, 3/2 (L,C,R,l,r) + LFE ch, ~448 kbps
General
Complete name : E:\INTERNET\Arn.Riket.vid.vagens.slut.2008.BDRip.MVO.ALLFILMS.RG.avi
Format : AVI
Format/Info : Audio Video Interleave
File size : 1.46 GiB
Duration : 2h 7mn
Overall bit rate : 1 634 Kbps
Director : Last Boy Scout
Writing application : VirtualDubMod 1.5.10.3 | www.virtualdub-fr.org || (build 2550/release)
Copyright : rutracker.org 11.06.2012
Comment : BDRip MVO (Kravec)

Video
ID : 0
Format : MPEG-4 Visual
Format profile : Advanced Simple@L5
Format settings, BVOP : 1
Format settings, QPel : No
Format settings, GMC : No warppoints
Format settings, Matrix : Custom
Codec ID : XVID
Codec ID/Hint : XviD
Duration : 2h 7mn
Bit rate : 1 176 Kbps
Width : 720 pixels
Height : 304 pixels
Display aspect ratio : 2.35:1
Frame rate : 24.000 fps
Color space : YUV
Chroma subsampling : 4:2:0
Bit depth : 8 bits
Scan type : Progressive
Compression mode : Lossy
Bits/(Pixel*Frame) : 0.224
Stream size : 1.05 GiB (72%)
Writing library : XviD 65

Audio
ID : 1
Format : AC-3
Format/Info : Audio Coding 3
Mode extension : CM (complete main)
Codec ID : 2000
Duration : 2h 7mn
Bit rate mode : Constant
Bit rate : 448 Kbps
Channel(s) : 6 channels
Channel positions : Front: L C R, Side: L R, LFE
Sampling rate : 48.0 KHz
Bit depth : 16 bits
Compression mode : Lossy
Stream size : 409 MiB (27%)
Alignment : Split accross interleaves
Interleave, duration : 42 ms (1.00 video frame)
Interleave, preload duration : 500 ms



Скачать Арн.Объединенное.королевство.Arn.-.Riket.vid.vagens.slut.(Петер.Флинт).[2008.боевик.драма.мелодрама.приключения.военный.история.BDRip].[MVO].(Kravec).torrent без регистрации
Золото ЗОЛОТАЯ РАЗДАЧА! СКАЧАННОЕ НЕ ЗАСЧИТЫВАЕТСЯ! Золото
Дата: Зарегистрирован   [ Тип: внутренний ] Как тут cкачать?
MAGNET ссылка
MAGNET ссылка


Скачать .torrent

15 KB

Статус: проверено DHT
Скачан: торрент - 107 раз, раздача полностью - 62 раз
Размер: 1,46 GB
Оценка:  4 (Голосов: 1)
Поблагодарили: 1
Поделиться ссылкой на эту раздачу с друзьями:
В контактеFacebookОдноклассникиTwitterLivejournalМой МирLiveinternet
 

 
Показать сообщения:    


Вы не можете начинать темы
Вы не можете отвечать на сообщения
Вы не можете редактировать свои сообщения
Вы не можете удалять свои сообщения
Вы не можете голосовать в опросах
Вы не можете прикреплять файлы к сообщениям
Вы можете скачивать файлы