Loading...
Error

Скачать Провод под током / Live Wire (Кристиан Дюгeй) [1992, Боевик, триллер, драма, криминал, HDTVRip] [AVO] (А.Гаврилов) торрент без регистрации

 
Статистика раздачи
Размер:  1,38 GB   |    Скачан:  113 раз
Сидов:  1  [  0 KB/s  ]  
 
Автор Сообщение

leon030982

[] 

Провод под током / Live Wire



Год выпуска: 1992
Производство: США
Жанр: Боевик, триллер, драма, криминал
Продолжительность: 01:25:10
Перевод: Авторский (одноголосый) [А.Гаврилов]
Оригинальная дорожка: английский
Субтитры: отсутствуют

Режиссер: Кристиан Дюгeй / Christian Duguay

В ролях: Пирс Броснан / Pierce Brosnan, Рон Силвер / Ron Silver, Бен Кросс / Ben Cross, Лиза Эльбахар / Lisa Eilbacher, Брент Дженнингс / Brent Jennings, Тони Плана / Tony Plana, Эл Уоксмен / Al Waxman, Филип Бейкер Холл / Philip Baker Hall, Майкл Ст. Джерард / Michael St. Gerard

Описание: Американский сенатор Виктор, выпив стакан воды превращается в корчащегося в конвульсиях человека и разрывается на мелкие кусочки.Он стал первой жертвой террористов, придумавших дьявольское изобретение, от действия которого не остается ни малейшего следа. На пути преступников встает специалист уникальной квалификации Дэнни О`Нилл, умеющий распознавать и обезвреживать любые мины, бомбы и прочие взрывчатые вещества.



Качество видео: HDTVRip
Контейнер: AVI
Видео кодек: XviD
Аудио кодек: AC3
Видео: 720x400, 23.976 fps, ~1853 kbps, 0.27 bit/pixel
Аудио #1: Dolby AC3 / 2.0 / 48 kHz / 224 kbps ( А.Гаврилов )
Аудио #2: Dolby AC3 / 2.0 / 48 kHz / 224 kbps ( оригинал )
General
Complete name : E:\INTERNET\Live Wire.1992.HDTVRip.AVO.by Consul.avi
Format : AVI
Format/Info : Audio Video Interleave
File size : 1.38 GiB
Duration : 1h 25mn
Overall bit rate : 2 315 Kbps
Director : Consul
Writing application : VirtualDubModRus 1.5.10.2 (build 2542/release)
Writing library : VirtualDubMod build 2542/release

Video
ID : 0
Format : MPEG-4 Visual
Format profile : Advanced Simple@L5
Format settings, BVOP : 1
Format settings, QPel : No
Format settings, GMC : No warppoints
Format settings, Matrix : Custom
Codec ID : XVID
Codec ID/Hint : XviD
Duration : 1h 25mn
Bit rate : 1 853 Kbps
Width : 720 pixels
Height : 400 pixels
Display aspect ratio : 16:9
Frame rate : 23.976 fps
Color space : YUV
Chroma subsampling : 4:2:0
Bit depth : 8 bits
Scan type : Progressive
Compression mode : Lossy
Bits/(Pixel*Frame) : 0.268
Stream size : 1.10 GiB (80%)
Writing library : XviD 73

Audio #1
ID : 1
Format : AC-3
Format/Info : Audio Coding 3
Mode extension : CM (complete main)
Codec ID : 2000
Duration : 1h 25mn
Bit rate mode : Constant
Bit rate : 224 Kbps
Channel(s) : 2 channels
Channel positions : Front: L R
Sampling rate : 48.0 KHz
Bit depth : 16 bits
Compression mode : Lossy
Stream size : 136 MiB (10%)
Alignment : Split accross interleaves
Interleave, duration : 42 ms (1.00 video frame)
Title : AVO

Audio #2
ID : 2
Format : AC-3
Format/Info : Audio Coding 3
Mode extension : CM (complete main)
Codec ID : 2000
Duration : 1h 25mn
Bit rate mode : Constant
Bit rate : 224 Kbps
Channel(s) : 2 channels
Channel positions : Front: L R
Sampling rate : 48.0 KHz
Bit depth : 16 bits
Compression mode : Lossy
Stream size : 136 MiB (10%)
Alignment : Split accross interleaves
Interleave, duration : 42 ms (1.00 video frame)
За HDTVRip [720p] спасибо team_6strun
Отдельное спасибо peaNEce
Автор рипа Consul



Скачать Провод.под.током.Live.Wire.(Кристиан.Дюгeй).[1992.Боевик.триллер.драма.криминал.HDTVRip].[AVO].(А.Гаврилов).torrent без регистрации
Золото ЗОЛОТАЯ РАЗДАЧА! СКАЧАННОЕ НЕ ЗАСЧИТЫВАЕТСЯ! Золото
Дата: Зарегистрирован   [ Тип: внутренний ] Как тут cкачать?
MAGNET ссылка
MAGNET ссылка


Скачать .torrent

14 KB

Статус: проверено DHT
Скачан: торрент - 113 раз, раздача полностью - 2 раз
Размер: 1,38 GB
Оценка:  5 (Голосов: 1)
Поблагодарили: 0
Поделиться ссылкой на эту раздачу с друзьями:
В контактеFacebookОдноклассникиTwitterLivejournalМой МирLiveinternet
 

 
Показать сообщения:    


Вы не можете начинать темы
Вы не можете отвечать на сообщения
Вы не можете редактировать свои сообщения
Вы не можете удалять свои сообщения
Вы не можете голосовать в опросах
Вы не можете прикреплять файлы к сообщениям
Вы можете скачивать файлы