Loading...
Error

Скачать День Д (Михаил Пореченков) [2008, боевик, приключения, BDRip-AVC] торрент без регистрации

 
Статистика раздачи
Размер:  2,24 GB   |    Скачан:  144 раза
Сидов:  1  [  0 KB/s  ]  
 
Автор Сообщение

МихаНЕзатор

[] 



Оригинальное название: День Д
Год выхода: 2008
Жанр: боевик, приключения
Режиссер: Михаил Пореченков
В ролях: Михаил Пореченков, Александра Урсуляк, Михаил Трухин, Виктор Вержбицкий, Варвара Пореченкова, Максим Дрозд, Боб Шрайбер, Константин Исаев, Сергей Сосновский, Сергей Блудов

О фильме:
Майор ВДВ в отставке Иван живет в глухом лесу вместе с маленькой дочерью Женей. Однажды на его дом совершается налет, во время которого Женю похищают. От Ивана в обмен на жизнь дочери требуют убить эстонского президента. Герой соглашается, но по дороге в Таллинн сбегает, встречает красавицу-стюардессу Алию. Вместе они захватывают гидроплан и отправляются на остров рядом с Владивостоком, где злодеи держат Женю.

Релиз от:

Страна: Россия
Студия: ВВП "Альянс"
Продолжительность: 01:24:26
Перевод: Не требуется

Файл
Кодек: h.264
Качество: BDRip-AVC
Видео: 3423 Кбит/с, 1024x444, 23.976 кадр/с
Аудио: АС3, 6 ch, 384 Кбит/с
Субтитры: Русские, английские

АНОНСЫ ПОПУЛЯРНЫХ РАЗДАЧ

-------------------------------------------------------------------------------------
x264 [info]: frame I:1264 Avg QP:19.47 size: 80544
x264 [info]: frame P:29691 Avg QP:20.36 size: 31922
x264 [info]: frame B:90529 Avg QP:21.54 size: 12297
-------------------------------------------------------------------------------------

Полное имя : Den.D.2008.x264.BDRip-AVC.0ptimus.mkv
Формат : Matroska
Версия формата : Version 2
Размер файла : 2,24 Гбайт
Продолжительность : 1 ч. 24 м.
Общий поток : 3801 Кбит/сек
Название фильма : День Д [2008] -=BDRip (AVC) by 0ptimus=-
Дата кодирования : UTC 2014-01-27 09:13:32
Программа кодирования : mkvmerge v6.6.0 ('The Edge Of The In Between') built on Dec 1 2013 17:55:00
Библиотека кодирования : libebml v1.3.0 + libmatroska v1.4.1

Видео
Идентификатор : 1
Формат : AVC
Формат/Информация : Advanced Video Codec
Профиль формата : High@L4.1
Параметр CABAC формата : Да
Параметр ReFrames формата : 8 кадров
Идентификатор кодека : V_MPEG4/ISO/AVC
Продолжительность : 1 ч. 24 м.
Битрейт : 3423 Кбит/сек
Ширина : 1024 пикселя
Высота : 444 пикселя
Соотношение сторон : 2,35:1
Режим частоты кадров : Постоянный
Частота кадров : 23,976 кадра/сек
Цветовое пространство : YUV
Субдискретизация насыщенности : 4:2:0
Битовая глубина : 8 бит
Тип развёртки : Прогрессивная
Бит/(Пиксели*Кадры) : 0.314
Размер потока : 1,97 Гбайт (88%)
Заголовок : Rip by 0ptimus
Библиотека кодирования : x264 core 92 r1510 33d382a
Настройки программы : cabac=1 / ref=8 / deblock=1:-2:-1 / analyse=0x3:0x113 / me=umh / subme=8 / psy=1 / psy_rd=1.00:0.20 / mixed_ref=1 / me_range=32 / chroma_me=1 / trellis=2 / 8x8dct=1 / cqm=0 / deadzone=21,11 / fast_pskip=0 / chroma_qp_offset=-3 / threads=3 / sliced_threads=0 / nr=0 / decimate=1 / interlaced=0 / constrained_intra=0 / bframes=5 / b_pyramid=2 / b_adapt=2 / b_bias=0 / direct=3 / wpredb=1 / wpredp=2 / keyint=250 / keyint_min=25 / scenecut=40 / intra_refresh=0 / rc=2pass / mbtree=0 / bitrate=3423 / ratetol=1.0 / qcomp=0.60 / qpmin=10 / qpmax=51 / qpstep=4 / cplxblur=20.0 / qblur=0.5 / ip_ratio=1.40 / pb_ratio=1.30 / aq=1:1.00
Язык : Russian
Default : Да
Forced : Да

Аудио
Идентификатор : 2
Формат : AC-3
Формат/Информация : Audio Coding 3
Расширение режима : CM (complete main)
Параметр Endianness формата : Big
Идентификатор кодека : A_AC3
Продолжительность : 1 ч. 24 м.
Вид битрейта : Постоянный
Битрейт : 384 Кбит/сек
Каналы : 6 каналов
Расположение каналов : Front: L C R, Side: L R, LFE
Частота : 48,0 КГц
Битовая глубина : 16 бит
Метод сжатия : С потерями
Размер потока : 232 Мбайт (10%)
Заголовок : AC3 5.1 @ 384 kbps
Язык : Russian
Default : Да
Forced : Да

Текст #1
Идентификатор : 3
Формат : UTF-8
Идентификатор кодека : S_TEXT/UTF8
Идентификатор кодека/Информация : UTF-8 Plain Text
Язык : Russian
Default : Нет
Forced : Нет

Текст #2
Идентификатор : 4
Формат : UTF-8
Идентификатор кодека : S_TEXT/UTF8
Идентификатор кодека/Информация : UTF-8 Plain Text
Язык : English
Default : Нет
Forced : Нет

Меню
00:00:00.000 : :Chapter 01
00:05:50.350 : :Chapter 02
00:11:09.835 : :Chapter 03
00:18:53.215 : :Chapter 04
00:26:14.572 : :Chapter 05
00:32:43.378 : :Chapter 06
00:40:26.549 : :Chapter 07
00:47:27.594 : :Chapter 08
00:54:12.499 : :Chapter 09
01:03:08.242 : :Chapter 10
01:10:14.043 : :Chapter 11
01:16:26.873 : :Chapter 12
01:24:26.227 : :Chapter 13



Скачать День.Д.(Михаил.Пореченков).[2008.боевик.приключения.BDRip-AVC].torrent без регистрации
Золото ЗОЛОТАЯ РАЗДАЧА! СКАЧАННОЕ НЕ ЗАСЧИТЫВАЕТСЯ! Золото
Дата: Зарегистрирован   [ Тип: внутренний ] Как тут cкачать?
MAGNET ссылка
MAGNET ссылка


Скачать .torrent

23 KB

Статус: проверено DHT
Скачан: торрент - 144 раз, раздача полностью - 191 раз
Размер: 2,24 GB
Оценка:  - (Голосов: 0)
Поблагодарили: 1
Поделиться ссылкой на эту раздачу с друзьями:
В контактеFacebookОдноклассникиTwitterLivejournalМой МирLiveinternet
 

 
Показать сообщения:    


Вы не можете начинать темы
Вы не можете отвечать на сообщения
Вы не можете редактировать свои сообщения
Вы не можете удалять свои сообщения
Вы не можете голосовать в опросах
Вы не можете прикреплять файлы к сообщениям
Вы можете скачивать файлы