Loading...
Error

Скачать Секс и незамужняя девушка / Sex and the Single Girl (Ричард Квин / Richard Quine) [1964, мелодрама, комедия, DVDRip] [DVO] + [VO] торрент без регистрации

 
Статистика раздачи
Размер:  2,19 GB   |    Скачан:  107 раз
Сидов:  1  [  0 KB/s  ]  
 
Автор Сообщение

leon030982

[] 

Секс и незамужняя девушка / Sex and the Single Girl

Слоган: «She wrote the book on love!»


Год выпуска: 1964
Страна: США
Жанр: мелодрама, комедия
Продолжительность: 01:49:45
Перевод #1: Профессиональный (двухголосый) [НТВ+]
Перевод #2: Одноголосый (закадровый)
Оригинальная дорожка: английский
Субтитры: русские (внешним файлом)[.srt]

Режиссер: Ричард Квин / Richard Quine
Сценарий: Джозеф Хеллер / Joseph Heller, Лесли Х. Мартинсон / Leslie H. Martinson, Дэвид Р. Шварц / David R. Schwartz, Хелен Гёрли Браун / Helen Gurley Brown, Джозеф Хоффман / Joseph Hoffman
Продюсер: Уильям Т. Орр / William T. Orr
Оператор: Чарльз Лэнг мл. / Charles Lang
Композитор: Нил Хефти / Neal Hefti

В ролях: Тони Кертис (Bob Weston), Натали Вуд (Helen Gurley Brown,), Генри Фонда (Frank Luther Broderick), Лорен Бэколл (Sylvia Broderick), Мел Феррер (Dr. Rudolph, DeMeyer), Фран Джеффрис (Gretchen), Лесли Пэрриш (Susan), Эдвард Эверетт Хортон (The Chief), Ларри Сторч (Motorcycle Cop), Стабби Кэй (Cab Driver 'Speed' Vogel), Ховард Ст. Джон (Randall), Отто Крюгер (Dr. Marshall H. Anderson)

Описание: Редактор «желтого журнала» «Стоп» Боб Вестон процветает! Чем скандальнее его статьи - тем в больший экстаз впадают главный редактор и редколлегия! Последним его «шедевром» стало исследование книги молодого психолога, очаровательной Хелен Браун. Ей 23 года, она не замужем и при этом пустилась в книге в исследования любви, секса и семейной жизни.
Все женщины без ума от ее творения, а Боб - Боб просто назвал ее девственницей и от души посмеялся, чем поверг Хелен в безудержную ярость. Она готова уехать на край света и бросить свое занятие. Но Боб собирается написать еще более хлесткую статью о ней. Для этого ему необходимо познакомиться с ней лично и взять интервью. Он отлично понимает, что Хелен ни за что на свете не станет с ним встречаться…




Качество: DVDRip (Источник: DVD9)
Формат: AVI
Видео кодек: XviD
Аудио кодек: AC3
Видео: XviD build 64; 704x400 (16:9); 2249 Kbps; 25 fps; 0,320 bpp
Аудио №1: AC3; 48.0 KHz; 192 Kbps; CBR; 1 ch [DVO (НТВ+)]
Аудио №2: AC3; 48.0 KHz; 192 Kbps; CBR; 2 ch [VO]
Аудио №3: AC3; 48.0 KHz; 192 Kbps; CBR; 1 ch [Eng]
За звуковые дорожки благодарности:
НТВ+ (MVO) - hedgehot и ghoulie (синхронизация)
VO - Bebop_05 и StudioRAK
Русские субтитры найдены в сети. Представляли собой довольно жалкое зрелище - куча граматических и стилистических ошибок. Поэтому были отредактированы (исправлены ошибки и прочее - фактически переписаны наполовину), сокращена длина строк, синхронизированы с данным релизом, удалены ссылки на сторонние ресурсы.
General
Complete name : ...\Seks_i_nezamuzhnjaja_devushka_(1963).DVDRip.XviD.ac3.avi
Format : AVI
Format/Info : Audio Video Interleave
Format profile : OpenDML
File size : 2.19 GiB
Duration : 1h 49mn
Overall bit rate : 2 851 Kbps
Writing application : VirtualDubMod 1.5.10.3 | www.virtualdub-fr.org || (build 2550/release)
Writing library : VirtualDubMod build 2550/release

Video
ID : 0
Format : MPEG-4 Visual
Format profile : Advanced Simple@L5
Format settings, BVOP : 1
Format settings, QPel : No
Format settings, GMC : No warppoints
Format settings, Matrix : Custom
Codec ID : XVID
Codec ID/Hint : XviD
Duration : 1h 49mn
Bit rate : 2 250 Kbps
Width : 704 pixels
Height : 400 pixels
Display aspect ratio : 16:9
Frame rate : 25.000 fps
Color space : YUV
Chroma subsampling : 4:2:0
Bit depth : 8 bits
Scan type : Progressive
Compression mode : Lossy
Bits/(Pixel*Frame) : 0.320
Stream size : 1.72 GiB (79%)
Writing library : XviD 64

Audio #1
ID : 1
Format : AC-3
Format/Info : Audio Coding 3
Mode extension : CM (complete main)
Codec ID : 2000
Duration : 1h 49mn
Bit rate mode : Constant
Bit rate : 192 Kbps
Channel(s) : 1 channel
Channel positions : Front: C
Sampling rate : 48.0 KHz
Bit depth : 16 bits
Compression mode : Lossy
Stream size : 151 MiB (7%)
Alignment : Split accross interleaves
Interleave, duration : 40 ms (1.00 video frame)
Interleave, preload duration : 500 ms

Audio #2
ID : 2
Format : AC-3
Format/Info : Audio Coding 3
Codec ID : 2000
Duration : 1h 49mn
Bit rate mode : Constant
Bit rate : 192 Kbps
Channel(s) : 2 channels
Sampling rate : 48.0 KHz
Compression mode : Lossy
Stream size : 151 MiB (7%)
Alignment : Split accross interleaves
Interleave, duration : 40 ms (1.00 video frame)
Interleave, preload duration : 500 ms

Audio #3
ID : 3
Format : AC-3
Format/Info : Audio Coding 3
Codec ID : 2000
Duration : 1h 49mn
Bit rate mode : Constant
Bit rate : 192 Kbps
Channel(s) : 1 channel
Sampling rate : 48.0 KHz
Compression mode : Lossy
Stream size : 151 MiB (7%)
Alignment : Split accross interleaves
Interleave, duration : 40 ms (1.00 video frame)
Interleave, preload duration : 500 ms



Скачать Секс.и.незамужняя.девушка.Sex.and.the.Single.Girl.(Ричард.Квин.Richard.Quine).[1964.мелодрама.комедия.DVDRip].[DVO].+.[VO].torrent без регистрации
Золото ЗОЛОТАЯ РАЗДАЧА! СКАЧАННОЕ НЕ ЗАСЧИТЫВАЕТСЯ! Золото
Дата: Зарегистрирован   [ Тип: внутренний ] Как тут cкачать?
MAGNET ссылка
MAGNET ссылка


Скачать .torrent

12 KB

Статус: проверено DHT
Скачан: торрент - 107 раз, раздача полностью - 3 раз
Размер: 2,19 GB
Оценка:  5 (Голосов: 1)
Поблагодарили: 1
Поделиться ссылкой на эту раздачу с друзьями:
В контактеFacebookОдноклассникиTwitterLivejournalМой МирLiveinternet
 

 
Показать сообщения:    


Вы не можете начинать темы
Вы не можете отвечать на сообщения
Вы не можете редактировать свои сообщения
Вы не можете удалять свои сообщения
Вы не можете голосовать в опросах
Вы не можете прикреплять файлы к сообщениям
Вы можете скачивать файлы