Loading...
Error

Скачать Панк из Солт-Лейк-Сити / SLC Punk! (Джеймс Мерендино / James Merendino) [1998, комедия, драма, DVDRip-AVC Hi10P] [VO] (Kyberpunk) + [VO] (Василий Савин) торрент без регистрации

 
Статистика раздачи
Размер:  2,06 GB   |    Скачан:  122 раза

Полного источника не было: 24 минуты

 
Автор Сообщение

leon030982

[] 


Год выпуска: 1998
Страна: США
Жанр: комедия, драма
Продолжительность: 01:37:43
Перевод #1: Одноголосый (закадровый) [Kyberpunk]
Перевод #2: Одноголосый (закадровый) [Василий Савин, PHEROMONES]

Cубтитры: русские, украинские, английские, испанские, французские.
Оригинальная аудио дорожка: английская
Режиссер: Джеймс Мерендино / James Merendino

В ролях: Мэттью Лиллард, Майкл А. Гурджиан, Аннабет Гиш, Дженнифер Лиен, Кристофер МакДональд, Девон Сава, Джейсон Сигел, Адам Паскаль, Тиль Швайгер, Джеймс Дювал
Описание: Если вы выросли в Америке, то бунтарство против всего мира у вас в крови. А если вы к тому же Стиво, и живете в эру Рейгана в Солт-Лейк-Сити, то… бунтарство в вас проявится чуть-чуть сильнее. Мир — его враг, анархия — его религия. Вы отправляетесь в захватывающее путешествие по его жизни, и по дороге вы встречаете панков, позеров, модов, фриков, наркоманов и других личностей. Отец Стиво, бывший хиппи, считает, что его жизнь проходит впустую и убеждает сына поступить в Юридическую школу Гарварда, которую он сам окончил. Но у Стиво, под, казалось бы, непробиваемой броней из ирокеза, сережек и кожи, скрывается много мыслей. Встает вопрос: как сохранить свою индивидуальность и жить в обществе?


Качество видео: DVDRip-AVC
Формат видео: MKV
Видео кодек: x264 (Hi10P)
Аудио кодек: AC-3, MP3
Видео: x264 (Hi10P), 714x358 => 842x358 (2.35:1), 23.976 fps, ~1717 kbps
Аудио #1: AC-3, 48 kHz, 448 kbps, 5.1ch [kyberpunk]
Аудио #2: AC-3, 48 kHz, 448 kbps, 5.1ch [оригинальная дорожка]
Аудио #3: AC-3, 48 kHz, 256 kbps, 2.0ch [комментарии]
Аудио #4: MP3, 48 kHz, 128 kbps, 2.0ch [Василий Савин, PHEROMONES]
Субтитры #1: SRT, softsub
Субтитры #2: SRT, softsub
Субтитры #3: SRT, softsub
Субтитры #4: SRT, softsub
Субтитры #5: SRT, softsub
Субтитры #6: VobSub, prerendered
Субтитры #7: VobSub, prerendered
Субтитры #8: VobSub, prerendered
Релиз содержит видео, закодированное в профиле High 10, и предназначен для просмотра на компьютере. На данный момент этот профиль не поддерживается абсолютным большинством бытовых медиаплееров.
Для просмотра рекомендуется связка MPC-HC + LAV Video Decoder + MadVR (Windows), MPlayerX (OS X), mpv (Linux/OS X).

Обе звуковые дорожки с переводом содержат ненормативную лексику.
mediainfo 'SLC Punk! 1998.mkv'
General
Unique ID : 145366815586104687399068051638277777968 (0x6D5CA15BB7B516071A3755AF4A2A2A30)
Complete name : SLC Punk! 1998.mkv
Format : Matroska
Format version : Version 2
File size : 2.06 GiB
Duration : 1h 37mn
Overall bit rate : 3 011 Kbps
Movie name : SLC Punk!
Encoded date : UTC 2012-05-31 12:35:39
Writing application : mkvmerge v5.5.0 ('Healer') built on Apr 10 2012 14:22:17
Writing library : libebml v1.2.2 + libmatroska v1.3.0
TITLE : SLC Punk!
DIRECTOR : James Merendino
Video
ID : 1
Format : AVC
Format/Info : Advanced Video Codec
Format profile : High 10@L3.1
Format settings, CABAC : Yes
Format settings, ReFrames : 10 frames
Codec ID : V_MPEG4/ISO/AVC
Duration : 1h 37mn
Bit rate : 1 717 Kbps
Width : 714 pixels
Height : 358 pixels
Display aspect ratio : 2.35:1
Original display aspect ratio : 2.35:1
Frame rate : 23.976 fps
Color space : YUV
Chroma subsampling : 4:2:0
Bit depth : 10 bits
Scan type : Progressive
Bits/(Pixel*Frame) : 0.280
Stream size : 1.14 GiB (55%)
Writing library : x264 core 125 r2200 999b753
Encoding settings : cabac=1 / ref=10 / deblock=1:-3:-3 / analyse=0x3:0x113 / me=umh / subme=11 / psy=1 / psy_rd=1.00:0.00 / mixed_ref=1 / me_range=24 / chroma_me=1 / trellis=2 / 8x8dct=1 / cqm=0 / deadzone=21,11 / fast_pskip=1 / chroma_qp_offset=-2 / threads=3 / lookahead_threads=1 / sliced_threads=0 / nr=0 / decimate=0 / interlaced=0 / bluray_compat=0 / constrained_intra=0 / bframes=16 / b_pyramid=2 / b_adapt=2 / b_bias=0 / direct=3 / weightb=1 / open_gop=0 / weightp=2 / keyint=250 / keyint_min=23 / scenecut=40 / intra_refresh=0 / rc=2pass / mbtree=0 / bitrate=1717 / ratetol=1.0 / qcomp=0.60 / qpmin=0 / qpmax=81 / qpstep=4 / cplxblur=20.0 / qblur=0.5 / ip_ratio=1.40 / pb_ratio=1.30 / aq=2:0.75
Language : English
Default : Yes
Forced : No
Matrix coefficients : BT.470-6 System B, BT.470-6 System G, BT.601-6 625, BT.1358 625, BT.1700 625 PAL, BT.1700 625 SECAM, IEC 61966-2-4 601
Audio #1
ID : 2
Format : AC-3
Format/Info : Audio Coding 3
Mode extension : CM (complete main)
Format settings, Endianness : Big
Codec ID : A_AC3
Duration : 1h 37mn
Bit rate mode : Constant
Bit rate : 448 Kbps
Channel(s) : 6 channels
Channel positions : Front: L C R, Side: L R, LFE
Sampling rate : 48.0 KHz
Bit depth : 16 bits
Compression mode : Lossy
Stream size : 313 MiB (15%)
Title : kyberpunk
Language : Russian
Default : Yes
Forced : No
Audio #2
ID : 3
Format : AC-3
Format/Info : Audio Coding 3
Mode extension : CM (complete main)
Format settings, Endianness : Big
Codec ID : A_AC3
Duration : 1h 37mn
Bit rate mode : Constant
Bit rate : 448 Kbps
Channel(s) : 6 channels
Channel positions : Front: L C R, Side: L R, LFE
Sampling rate : 48.0 KHz
Bit depth : 16 bits
Compression mode : Lossy
Stream size : 313 MiB (15%)
Title : original
Language : English
Default : No
Forced : No
Audio #3
ID : 4
Format : AC-3
Format/Info : Audio Coding 3
Format profile : Dolby Digital
Mode extension : CM (complete main)
Format settings, Endianness : Big
Codec ID : A_AC3
Duration : 1h 37mn
Bit rate mode : Constant
Bit rate : 256 Kbps
Channel(s) : 2 channels
Channel positions : Front: L R
Sampling rate : 48.0 KHz
Bit depth : 16 bits
Compression mode : Lossy
Stream size : 179 MiB (9%)
Title : comments
Language : English
Default : No
Forced : No
Audio #4
ID : 5
Format : MPEG Audio
Format version : Version 1
Format profile : Layer 3
Codec ID : A_MPEG/L3
Codec ID/Hint : MP3
Duration : 1h 37mn
Bit rate mode : Constant
Bit rate : 128 Kbps
Channel(s) : 2 channels
Sampling rate : 48.0 KHz
Compression mode : Lossy
Stream size : 89.5 MiB (4%)
Title : Василий Савин, PHEROMONES
Writing library : LAME3.97
Encoding settings : -m s -V 4 -q 2 -lowpass 17 -b 128
Language : Russian
Default : No
Forced : No
Text #1
ID : 6
Format : UTF-8
Codec ID : S_TEXT/UTF8
Codec ID/Info : UTF-8 Plain Text
Title : SRT
Language : Russian
Default : No
Forced : No
Text #2
ID : 7
Format : UTF-8
Codec ID : S_TEXT/UTF8
Codec ID/Info : UTF-8 Plain Text
Title : SRT
Language : Ukrainian
Default : No
Forced : No
Text #3
ID : 8
Format : UTF-8
Codec ID : S_TEXT/UTF8
Codec ID/Info : UTF-8 Plain Text
Title : SRT
Language : English
Default : No
Forced : No
Text #4
ID : 9
Format : UTF-8
Codec ID : S_TEXT/UTF8
Codec ID/Info : UTF-8 Plain Text
Title : SRT
Language : Spanish
Default : No
Forced : No
Text #5
ID : 10
Format : UTF-8
Codec ID : S_TEXT/UTF8
Codec ID/Info : UTF-8 Plain Text
Title : SRT
Language : French
Default : No
Forced : No
Text #6
ID : 11
Format : VobSub
Muxing mode : zlib
Codec ID : S_VOBSUB
Codec ID/Info : The same subtitle format used on DVDs
Title : VobSub
Language : English
Default : No
Forced : No
Text #7
ID : 12
Format : VobSub
Muxing mode : zlib
Codec ID : S_VOBSUB
Codec ID/Info : The same subtitle format used on DVDs
Title : VobSub
Language : Spanish
Default : No
Forced : No
Text #8
ID : 13
Format : VobSub
Muxing mode : zlib
Codec ID : S_VOBSUB
Codec ID/Info : The same subtitle format used on DVDs
Title : VobSub
Language : French
Default : No
Forced : No
Menu
00:00:00.000 : en:Start
00:02:53.882 : en:Heroin Bob
00:04:50.415 : en:"I hate doctors, man."
00:06:19.545 : en:Chemistry major
00:07:14.809 : en:Sean
00:11:35.903 : en:Four years earlier
00:15:53.535 : en:Four years later
00:16:25.985 : en:Posers
00:18:49.336 : en:Exhibit A: ECP
00:23:06.301 : en:After-party
00:25:07.506 : en:Mark
00:39:53.974 : en:Real beer
00:41:40.956 : en:Eddie
00:43:37.281 : en:Aliens
00:48:14.600 : en:Rednecks
00:53:14.566 : en:Good news
00:56:26.508 : en:Beggar Sean
00:59:22.350 : en:Tripping
01:05:36.641 : en:Chris
01:09:11.063 : en:"My territory!"
01:13:21.980 : en:Botany major
01:15:13.842 : en:Depressed
01:18:14.898 : en:Bob's Dad
01:22:05.295 : en:Brandy
01:25:01.679 : en:Vitamins?
01:28:32.765 : en:"Only posers die."
01:31:19.140 : en:Beginnings
01:33:28.853 : en:The final irony



Скачать Панк.из.Солт-Лейк-Сити.SLC.Punk!.(Джеймс.Мерендино.James.Merendino).[1998.комедия.драма.DVDRip-AVC.Hi10P].[VO].(Kyberpunk).+.[VO].(Василий.Савин).torrent без регистрации
Золото ЗОЛОТАЯ РАЗДАЧА! СКАЧАННОЕ НЕ ЗАСЧИТЫВАЕТСЯ! Золото
Дата: Зарегистрирован   [ Тип: внутренний ] Как тут cкачать?
MAGNET ссылка
MAGNET ссылка


Скачать .torrent

21 KB

Статус: проверено DHT
Скачан: торрент - 122 раз, раздача полностью - 54 раз
Размер: 2,06 GB
Оценка:  - (Голосов: 0)
Поблагодарили: 2
Поделиться ссылкой на эту раздачу с друзьями:
В контактеFacebookОдноклассникиTwitterLivejournalМой МирLiveinternet
 

 
Показать сообщения:    


Вы не можете начинать темы
Вы не можете отвечать на сообщения
Вы не можете редактировать свои сообщения
Вы не можете удалять свои сообщения
Вы не можете голосовать в опросах
Вы не можете прикреплять файлы к сообщениям
Вы можете скачивать файлы