Loading...
Error

Скачать Не делай этого!.. / Не стоило! / Fallait pas!.. (Жерар Жюньо / Gerard Jugnot) [1996, комедия, DVDRip] [Dub] (РТР) торрент без регистрации

 
Статистика раздачи
Размер:  1,46 GB   |    Скачан:  103 раза
Сидов:  1  [  0 KB/s  ]  
 
Автор Сообщение

leon030982

[] 

Не делай этого!.. / Не стоило! / Fallait pas!..



Год выпуска: 1996
Страна: Франция, Испания
Жанр: комедия
Продолжительность: 01:34:20
Перевод: Профессиональный (дублированный) [РТР]
Cубтитры: нет

Режиссер: Жерар Жюньо / Gerard Jugnot

В ролях: Жерар Жюньо, Франсуа Морель, Жан Янн, Мишель Ларок, Мартен Ламотт, Мишлин Прель, Клод Пьеплю, Жак Жуанно, Софи Демаре, Энни Грегорио, Тьерри Лермитт, Максим Леру, Марин Мазеа

Описание: День накануне свадьбы у Бернара не задался. На военных сборах повздорил с руководителем, по дороге домой попал в снежный занос, а в коттедже, куда он обратился за помощью оказалась секта самоубийц во главе с кровавым убийцей - гуру. И это ещё только начало...



Качество видео: DVDRip
Формат видео: AVI
Видео кодек: XviD
Аудио кодек: AC3
Видео: XviD, 720x384 (1.88:1), 25 fps, 2007 kbps avg, 0.29 bit/pixel
Аудио: AC3 Dolby Digital, 48 kHz, 192 kbps, 2/0 (L,R) ch

Код:

Общее
Полное имя                               : Ne.Delay.Etogo.1996.XviD.DVDRip.RusDUB.avi
Формат                                   : AVI
Формат/Информация                        : Audio Video Interleave
Размер файла                             : 1,46 Гбайт
Продолжительность                        : 1 ч. 34 м.
Общий поток                              : 2210 Кбит/сек
Название фильма                          : Ne.Delay.Etogo.1996.XviD.DVDRip.RusDUB
Режиссёр                                 : rip by MetionInka
Жанр                                     : Comedy
Программа кодирования                    : VirtualDubMod 1.5.10.3 | www.virtualdub-fr.org || (build 2550/release)
Формат оригинала/Имя                     : Fallait pas!
Правообладатель                          : rutracker.org / RG TRU
Примечание                               : RusDUB [PTP]
Видео
Идентификатор                            : 0
Формат                                   : MPEG-4 Visual
Профиль формата                          : Advanced Simple@L5
Параметр BVOP формата                    : 2
Параметр QPel формата                    : Нет
Параметр GMC формата                     : Без точки перехода
Параметр матрицы формата                 : Выборочная
Идентификатор кодека                     : XVID
Идентификатор кодека/Подсказка           : XviD
Продолжительность                        : 1 ч. 34 м.
Битрейт                                  : 2008 Кбит/сек
Ширина                                   : 720 пикселей
Высота                                   : 384 пикселя
Соотношение сторон                       : 1,85:1
Частота кадров                           : 25,000 кадров/сек
Цветовое пространство                    : YUV
Субдискретизация насыщенности            : 4:2:0
Битовая глубина                          : 8 бит
Тип развёртки                            : Прогрессивная
Метод сжатия                             : С потерями
Бит/(Пиксели*Кадры)                      : 0.291
Размер потока                            : 1,32 Гбайт (91%)
Библиотека кодирования                   : XviD 73
Аудио
Идентификатор                            : 1
Формат                                   : AC-3
Формат/Информация                        : Audio Coding 3
Расширение режима                        : CM (complete main)
Параметр Endianness формата              : Big
Идентификатор кодека                     : 2000
Продолжительность                        : 1 ч. 34 м.
Вид битрейта                             : Постоянный
Битрейт                                  : 192 Кбит/сек
Каналы                                   : 2 канала
Расположение каналов                     : Front: L R
Частота                                  : 48,0 КГц
Битовая глубина                          : 16 бит
Метод сжатия                             : С потерями
Размер потока                            : 130 Мбайт (9%)
Выравнивание                             : Разделение по промежуткам
Продолжительность промежутка             : 40  мс. (1,00 видеокадр)
Время предзагрузки промежутка            : 500  мс.




Скачать Не.делай.этого!.Не.стоило!.Fallait.pas!.(Жерар.Жюньо.Gerard.Jugnot).[1996.комедия.DVDRip].[Dub].(РТР).torrent без регистрации
Золото ЗОЛОТАЯ РАЗДАЧА! СКАЧАННОЕ НЕ ЗАСЧИТЫВАЕТСЯ! Золото
Дата: Зарегистрирован   [ Тип: внутренний ] Как тут cкачать?
MAGNET ссылка
MAGNET ссылка


Скачать .torrent

15 KB

Статус: проверено DHT
Скачан: торрент - 103 раз, раздача полностью - 1 раз
Размер: 1,46 GB
Оценка:  - (Голосов: 0)
Поблагодарили: 1
Поделиться ссылкой на эту раздачу с друзьями:
В контактеFacebookОдноклассникиTwitterLivejournalМой МирLiveinternet
 

 
Показать сообщения:    


Вы не можете начинать темы
Вы не можете отвечать на сообщения
Вы не можете редактировать свои сообщения
Вы не можете удалять свои сообщения
Вы не можете голосовать в опросах
Вы не можете прикреплять файлы к сообщениям
Вы можете скачивать файлы