Loading...
Error

Скачать Планкетт и Маклейн / Plunkett & Macleane (Джейк Скотт) [1999, боевик, драма, криминал, приключения, BDRip] [1080p] [MVO] [Лицензия] [R.G. ОбЛоМоВ] торрент без регистрации

 
Статистика раздачи
Размер:  4,33 GB   |    Скачан:  178 раз

Полного источника не было: 2 года 4 месяца

 
Автор Сообщение

balextin

[] 


Планкетт и Маклейн
Plunkett & Macleane


Год выпуска: 1999
Выпущено: Великобритания
Жанр: боевик, драма, криминал, приключения
Продолжительность: 99 мин. / 01:37:17

Перевод: Профессиональный (многоголосый)
Субтитры: Русские

Режиссер: Джейк Скотт

В ролях:
Роберт Карлайл (Plunkett), Джонни Ли Миллер (Macleane), Лив Тайлер (Lady Rebecca Gibson), Кен Стотт (Chance), Майкл Гэмбон (Lord Gibson), Алан Камминг (Lord Rochester), Клэр Рашбрук (Lady Estelle), Иэйн Робертсон (Highwayman Rob), Томми Флэнаган (Eddie), Стивен Уолтерс (Dennis), Джеймс Торнтон (Catchpole), Теренс Ригби (Harrison)

Описание:
Англия, XVIII век. Уилл Планкетт — обыкновенный бездельник-простолюдин, променявший профессию аптекаря на романтику большой дороги. Джеймс Маклейн — бывший аристократ, погрязший в долгах и потому вынужденный круто изменить свою жизнь. Вместе Планкетт и Маклейн — неуловимые и никем не превзойденные разбойники, осуществляющие самые невероятные авантюры и ограбления. Единственная драгоценность, которая может оказаться не по зубам беспечным «рыцарям ножа и пистолета», — красавица Ребекка, дочь главного королевского прокурора...



Релиз от: ОбЛоМоВ

Качество: BDRip 1080p
Формат: MKV
Видео кодек: H.264
Аудио кодек: DTS
Видео: AVC, 1920x800 (2.40:1), 5616 kbps, 25 fps, 0,146 bpp
Аудио: DTS / 5.1 / 48 kHz / 755 kbps / 24 bit


General
Unique ID : 176212885569175008976684298295426143653 (0x84915E06BF4EC130AFA770B1AC87D5A5)
Complete name : F:\1999 - Планкетт и Маклейн.mkv
Format : Matroska
Format version : Version 2
File size : 4.33 GiB
Duration : 1h 37mn
Overall bit rate : 6 371 Kbps
Encoded date : UTC 2014-01-28 13:11:14
Writing application : mkvmerge v6.1.0 ('Old Devil') built on Mar 4 2013 09:10:42
Writing library : libebml v1.3.0 + libmatroska v1.4.0

Video
ID : 1
Format : AVC
Format/Info : Advanced Video Codec
Format profile : High@L4.1
Format settings, CABAC : Yes
Format settings, ReFrames : 4 frames
Codec ID : V_MPEG4/ISO/AVC
Duration : 1h 37mn
Bit rate : 5 616 Kbps
Width : 1 920 pixels
Height : 800 pixels
Display aspect ratio : 2.40:1
Frame rate : 25.000 fps
Color space : YUV
Chroma subsampling : 4:2:0
Bit depth : 8 bits
Scan type : Progressive
Bits/(Pixel*Frame) : 0.146
Stream size : 3.73 GiB (86%)
Writing library : x264 core 130 r2273 b3065e6
Encoding settings : cabac=1 / ref=4 / deblock=1:-1:-1 / analyse=0x3:0x113 / me=umh / subme=8 / psy=1 / psy_rd=1.00:0.15 / mixed_ref=1 / me_range=16 / chroma_me=1 / trellis=1 / 8x8dct=1 / cqm=0 / deadzone=21,11 / fast_pskip=1 / chroma_qp_offset=-3 / threads=6 / lookahead_threads=1 / sliced_threads=0 / nr=0 / decimate=1 / interlaced=0 / bluray_compat=0 / constrained_intra=0 / bframes=3 / b_pyramid=2 / b_adapt=2 / b_bias=0 / direct=3 / weightb=1 / open_gop=0 / weightp=2 / keyint=250 / keyint_min=25 / scenecut=40 / intra_refresh=0 / rc_lookahead=50 / rc=2pass / mbtree=1 / bitrate=5616 / ratetol=1.0 / qcomp=0.60 / qpmin=0 / qpmax=69 / qpstep=4 / cplxblur=20.0 / qblur=0.5 / vbv_maxrate=17500 / vbv_bufsize=14000 / nal_hrd=none / ip_ratio=1.40 / aq=1:1.00
Default : Yes
Forced : No

Audio
ID : 2
Format : DTS
Format/Info : Digital Theater Systems
Codec ID : A_DTS
Duration : 1h 37mn
Bit rate mode : Constant
Bit rate : 755 Kbps
Channel(s) : 6 channels
Channel positions : Front: L C R, Side: L R, LFE
Sampling rate : 48.0 KHz
Bit depth : 24 bits
Compression mode : Lossy
Stream size : 525 MiB (12%)
Default : Yes
Forced : No













Скачать Планкетт.и.Маклейн.Plunkett.&.Macleane.(Джейк.Скотт).[1999.боевик.драма.криминал.приключения.BDRip].[1080p].[MVO].[Лицензия].[R.G.ОбЛоМоВ].torrent без регистрации
Золото ЗОЛОТАЯ РАЗДАЧА! СКАЧАННОЕ НЕ ЗАСЧИТЫВАЕТСЯ! Золото
Дата: Зарегистрирован   [ Тип: внутренний ] Как тут cкачать?
MAGNET ссылка
MAGNET ссылка


Скачать .torrent

22 KB

Статус: * не проверено
Скачан: торрент - 178 раз, раздача полностью - 5 раз
Размер: 4,33 GB
Оценка:  5 (Голосов: 2)
Поблагодарили: 2
Поделиться ссылкой на эту раздачу с друзьями:
В контактеFacebookОдноклассникиTwitterLivejournalМой МирLiveinternet
 

 
Показать сообщения:    


Вы не можете начинать темы
Вы не можете отвечать на сообщения
Вы не можете редактировать свои сообщения
Вы не можете удалять свои сообщения
Вы не можете голосовать в опросах
Вы не можете прикреплять файлы к сообщениям
Вы можете скачивать файлы