Loading...
Error

Скачать Кабан-секач / Razorback (Рассел Малкэй) [1984, ужасы, DVDRip] [DVO]+[AVO]+[Оригинал] торрент без регистрации

 
Статистика раздачи
Размер:  1,46 GB   |    Скачан:  103 раза
Сидов:  1  [  0 KB/s  ]  
 
Автор Сообщение

Marsianka

[] 

Страна: Австралия
Производство: McElroy & McElroy, UAA Films, Western Film Productions
Жанр: ужасы
Год выпуска: 1984

Продолжительность: 01:30:41

Перевод: Профессиональный двухголосый, авторский (Гаврилов)

Оригинальная аудиодорожка: Английская

Режиссер: Рассел Малкэй

В ролях: Грегори Харрисон, Арки Уайтели, Билл Керр, Крис Хейвуд, Дэвид Арге, Джуди Моррис, Джон Ховард, Джон Эварт, Дон Смит, Мервин Дрэй


Описание: Где-то на бескрайних просторах Австралии бродит жуткое существо, которое может разорвать человека в клочья и разрушить ваш дом за считанные секунды... Это - секач, гигантское и безжалостное существо, уродливое и страшное порождение природы, четырехсоткилограммовая тварь с острыми как бритва клыками... В тех самых местах, где бродит секач, без следа исчезает американская журналистка. Ее безутешный муж отправляется на поиски пропавшей супруги и попадает в завораживающую круговерть кошмара и ужаса...



Исходник: DVD5 R2

Тип релиза: DVDRip

Контейнер: AVI

Видео: 688x288 (2.39:1), 23.976 fps, XviD ~1713 kbps avg, 0.36 bit/pixel
Аудио: #1: 48 kHz, AC3 2.0 ~192.00 kbps avg (RUS)
Аудио: #2: 48 kHz, AC3 2.0 ~192.00 kbps avg (RUS)
Аудио: #3: 48 kHz, AC3 2.0 ~128.00 kbps avg (ENG)
Общее
Полное имя : D:залитьКабан-Секач.avi
Формат : AVI
Формат/Информация : Audio Video Interleave
Размер файла : 1,46 Гбайт
Продолжительность : 1 ч. 30 м.
Общий поток : 2310 Кбит/сек
Программа кодирования : VirtualDubMod 1.5.10.2 (build 2540/release)
Библиотека кодирования : VirtualDubMod build 2540/release

Видео
Идентификатор : 0
Формат : MPEG-4 Visual
Профиль формата : Advanced Simple@L5
Параметр BVOP формата : 1
Параметр QPel формата : Нет
Параметр GMC формата : Без точки перехода
Параметр матрицы формата : Default (H.263)
Идентификатор кодека : XVID
Идентификатор кодека/Подсказка : XviD
Продолжительность : 1 ч. 30 м.
Битрейт : 1715 Кбит/сек
Ширина : 688 пикселей
Высота : 288 пикселей
Соотношение сторон : 2,40:1
Частота кадров : 23,976 кадра/сек
Цветовое пространство : YUV
Субдискретизация насыщенности : 4:2:0
Битовая глубина : 8 бит
Тип развёртки : Прогрессивная
Метод сжатия : С потерями
Бит/(Пиксели*Кадры) : 0.361
Размер потока : 1,09 Гбайт (74%)
Библиотека кодирования : XviD 1.2.1 (UTC 2008-12-04)

Аудио #1
Идентификатор : 1
Формат : AC-3
Формат/Информация : Audio Coding 3
Расширение режима : CM (complete main)
Параметр Endianness формата : Big
Идентификатор кодека : 2000
Продолжительность : 1 ч. 30 м.
Вид битрейта : Постоянный
Битрейт : 192 Кбит/сек
Каналы : 2 канала
Расположение каналов : Front: L R
Частота : 48,0 КГц
Битовая глубина : 16 бит
Метод сжатия : С потерями
Размер потока : 125 Мбайт (8%)
Выравнивание : Разделение по промежуткам
Продолжительность промежутка : 42 мс. (1,00 видеокадр)
Время предзагрузки промежутка : 500 мс.

Аудио #2
Идентификатор : 2
Формат : AC-3
Формат/Информация : Audio Coding 3
Расширение режима : CM (complete main)
Параметр Endianness формата : Big
Идентификатор кодека : 2000
Продолжительность : 1 ч. 30 м.
Вид битрейта : Постоянный
Битрейт : 192 Кбит/сек
Каналы : 2 канала
Расположение каналов : Front: L R
Частота : 48,0 КГц
Битовая глубина : 16 бит
Метод сжатия : С потерями
Размер потока : 125 Мбайт (8%)
Выравнивание : Разделение по промежуткам
Продолжительность промежутка : 42 мс. (1,00 видеокадр)
Время предзагрузки промежутка : 500 мс.

Аудио #3
Идентификатор : 3
Формат : AC-3
Формат/Информация : Audio Coding 3
Расширение режима : CM (complete main)
Параметр Endianness формата : Big
Идентификатор кодека : 2000
Продолжительность : 1 ч. 30 м.
Вид битрейта : Постоянный
Битрейт : 192 Кбит/сек
Каналы : 2 канала
Расположение каналов : Front: L R
Частота : 48,0 КГц
Битовая глубина : 16 бит
Метод сжатия : С потерями
Размер потока : 125 Мбайт (8%)
Выравнивание : Разделение по промежуткам
Продолжительность промежутка : 42 мс. (1,00 видеокадр)
Время предзагрузки промежутка : 500 мс.
Автор рипа:



Скачать Кабан-секач.Razorback.(Рассел.Малкэй).[1984.ужасы.DVDRip].[DVO]+[AVO]+[Оригинал].torrent без регистрации
Золото ЗОЛОТАЯ РАЗДАЧА! СКАЧАННОЕ НЕ ЗАСЧИТЫВАЕТСЯ! Золото
Дата: Зарегистрирован   [ Тип: внутренний ] Как тут cкачать?
MAGNET ссылка
MAGNET ссылка


Скачать .torrent

16 KB

Статус: проверено DHT
Скачан: торрент - 103 раз, раздача полностью - 5 раз
Размер: 1,46 GB
Оценка:  - (Голосов: 0)
Поблагодарили: 0
Поделиться ссылкой на эту раздачу с друзьями:
В контактеFacebookОдноклассникиTwitterLivejournalМой МирLiveinternet
 

 
Показать сообщения:    


Вы не можете начинать темы
Вы не можете отвечать на сообщения
Вы не можете редактировать свои сообщения
Вы не можете удалять свои сообщения
Вы не можете голосовать в опросах
Вы не можете прикреплять файлы к сообщениям
Вы можете скачивать файлы