Loading...
Error

Скачать Письмо трем женам / A Letter to Three Wives (Джозеф Лео Манкевич) [1949, драма, мелодрама, DVDRip] [MVO] торрент без регистрации

 
Статистика раздачи
Размер:  690 MB   |    Скачан:  97 раз
Сидов:  1  [  0 KB/s  ]  
 
Автор Сообщение

Marsianka

[] 

Информация о фильме
Название: Письмо трем женам
Оригинальное название: A Letter to Three Wives
Год выхода: 1949
Жанр: драма, мелодрама
Режиссер: Джозеф Лео Манкевич
В ролях: Джинн Крейн, Линда Дарнелл, Энн Сотерн, Кирк Дуглас, Пол Дуглас, Барбара Лоуренс, Джеффри Линн, Конни Гилкрайст, Флоренс Бейтс, Хобарт Кавано

О фильме:
Дебора Бишоп, Лора Холлингсвэй и Рита Фиппс собираются в путешествие выходного дня на прогулочном катере вдоль Хадсон-ривер, сопровождая группу подростков. Неожиданно перед отплытием посыльный вручает письмо, адресованное всем трем женщинам от Эдди Росс их лучшей подруги. Текст письма гласит, «Понимаете, девочки, я убежала с мужем одной из вас!».

Корабль отчалил о берега, а подруги озадачено стали гадать, подвергая себя тонкой эмоциональной пытке, чей же муж сбежал из семьи с этой коварной разлучницей. Письмо заставило лихорадочно пересмотреть свои взаимоотношения в семье трех дам, живущих в комфортабельных домах и определенно счастливых в браке



Страна: США
Студия: Twentieth Century Fox Film Corporation
Продолжительность: 01:38:53
Перевод: Профессиональный (многоголосый закадровый) | R5

Файл
Кодек: DivX 6
Качество: DVDRip
Видео: 640x480 (4:3), 841 Kbps, 25.000 fps
Звук: MP3, 2 ch, 48.0 kHz, 128 Kbps, CBR
Субтитры: нет

SAMPLE

Релиз от:
Общее
Полное имя : Letter to Three Wives, A.avi
Формат : AVI
Формат/Информация : Audio Video Interleave
Размер файла : 690 Мбайт
Продолжительность : 1 ч. 38 м.
Общий поток : 976 Кбит/сек
Название фильма : Letter to Three Wives, A
Программа кодирования : VirtualDubMod 1.5.4.1 (build 2178/release)VirtualDubMod build 2178/release

Видео
Идентификатор : 0
Формат : MPEG-4 Visual
Параметр BVOP формата : 1
Параметр QPel формата : Нет
Параметр GMC формата : Без точки перехода
Параметр матрицы формата : Default (H.263)
Режим смешивания : Сжатый битовый поток
Идентификатор кодека : DX50
Идентификатор кодека/Подсказка : DivX 5
Продолжительность : 1 ч. 38 м.
Битрейт : 841 Кбит/сек
Ширина : 640 пикселей
Высота : 480 пикселей
Соотношение сторон : 4:3
Частота кадров : 25,000 кадров/сек
Цветовое пространство : YUV
Субдискретизация насыщенности : 4:2:0
Битовая глубина : 8 бит
Тип развёртки : Прогрессивная
Метод сжатия : С потерями
Бит/(Пиксели*Кадры) : 0.109
Размер потока : 595 Мбайт (86%)
Библиотека кодирования : DivX 6.7.0 (UTC 2007-09-20)

Аудио
Идентификатор : 1
Формат : MPEG Audio
Версия формата : Version 1
Профиль формата : Layer 3
Режим : Joint stereo
Расширение режима : MS Stereo
Идентификатор кодека : 55
Идентификатор кодека/Подсказка : MP3
Продолжительность : 1 ч. 38 м.
Вид битрейта : Постоянный
Битрейт : 128 Кбит/сек
Каналы : 2 канала
Частота : 48,0 КГц
Метод сжатия : С потерями
Размер потока : 90,5 Мбайт (13%)
Выравнивание : Соединение по промежуткам
Продолжительность промежутка : 80 мс. (2,00 видеокадра)
Время предзагрузки промежутка : 504 мс.
Библиотека кодирования : LAME3.97
Настройки программы : -m j -V 4 -q 2 -lowpass 17 -b 128
Язык : Не определен / Russian



Скачать Письмо.трем.женам.A.Letter.to.Three.Wives.(Джозеф.Лео.Манкевич).[1949.драма.мелодрама.DVDRip].[MVO].torrent без регистрации
Золото ЗОЛОТАЯ РАЗДАЧА! СКАЧАННОЕ НЕ ЗАСЧИТЫВАЕТСЯ! Золото
Дата: Зарегистрирован   [ Тип: внутренний ] Как тут cкачать?
MAGNET ссылка
MAGNET ссылка


Скачать .torrent

14 KB

Статус: проверено DHT
Скачан: торрент - 97 раз, раздача полностью - 3 раз
Размер: 690 MB
Оценка:  - (Голосов: 0)
Поблагодарили: 0
Поделиться ссылкой на эту раздачу с друзьями:
В контактеFacebookОдноклассникиTwitterLivejournalМой МирLiveinternet
 

 
Показать сообщения:    


Вы не можете начинать темы
Вы не можете отвечать на сообщения
Вы не можете редактировать свои сообщения
Вы не можете удалять свои сообщения
Вы не можете голосовать в опросах
Вы не можете прикреплять файлы к сообщениям
Вы можете скачивать файлы