Loading...
Error

Скачать Приключения Рокки и Буллвинкля / The Adventures of Rocky & Bullwinkle (Дес МакАнуфф) [2000, мультфильм, фэнтези, комедия, приключения, семейный, BDRip] [1080p] [MVO] [Лицензия] [R.G. ОбЛоМоВ] торрент без регистрации

 
Статистика раздачи
Размер:  4,33 GB   |    Скачан:  121 раз

Полного источника не было: 2 года 4 месяца

 
Автор Сообщение

balextin

[] 

Приключения Рокки и Буллвинкля




Год выпуска: 2000
Выпущено: США, Германия
Жанр: мультфильм, фэнтези, комедия, приключения, семейный
Продолжительность: 92 мин. / 1:27:57

Перевод: Профессиональный (многоголосый)

Режиссер: Дес МакАнуфф

В ролях:
Пайпер Перабо (Karen Sympathy), Роберт Де Ниро (Fearless Leader), Рене Руссо (Natasha), Джейсон Александр (Boris), Рэнди Куэйд (Cappy von Trapment), Джун Форэй (Rocky, Cartoon Natasha Fatale, рассказчик's Mother, озвучка), Кит Скотт (Bullwinkle, рассказчик, Cartoon Boris Badenov, Cartoon Fearless Leader, озвучка), Джанин Гарофало (Minnie Mogul), Карл Райнер (P.G. Biggershot), Джонатан Уинтерс (Whoppa Chopper Pilot / Ohio Cop with Bullhorn / Jeb), Джон Гудман (Oklahoma Cop), Кенан Томпсон (Lewis)

Дублёры:
Жанна Никонова (Karen Sympathy), Всеволод Кузнецов (Fearless Leader), Лариса Некипелова (Natasha), Юрий Маляров (Boris), Рудольф Панков (Cappy von Trapment), Ольга Голованова (Rocky), Леонид Белозорович (Bullwinkle), Александр Хотченков, Алексей Золотницкий, Валентин Голубенко, Владимир Конкин, Дмитрий Филимонов

Описание:
Двое злодеев времен «холодной войны», злые шпионы из Поттсильвании Борис Баденов и Наташа Фаталь объединяют свои усилия с современным медиа-магнатом - Бесстрашным Лидером, который строит коварные планы завоевания мира. Не в силах справиться со злодеями, ФБР призывает на помощь бесстрашную парочку - говорящего лося Буллвинкля и летающую белку Рокки.
В основу ленты положен популярный телевизионный мультсериал 60-х годов. Роберт Де Ниро всегда был большим его поклонником, и поэтому производство картины осуществила его кинокомпания Tribeca Prods., а сам он не только исполнил одну из ролей, но и выступил в качестве продюсера.
В эпизодических ролях снялись такие знаменитости, как Билли Кристал, Джон Гудман, Вупи Голдберг, Джанин Гарофало и Карл Райнер. Компьютерные спецэффекты создала компания ILM.



Релиз от: ОбЛоМоВ

Качество: BDRip 1080p
Формат: MKV
Видео кодек: H.264
Аудио кодек: DTS
Видео: AVC; 1920x800 (2.40:1); 6291 Kbps; 25 fps; 0,164 bpp
Аудио: DTS; 755 Kbps; CBR; 6 ch; 24 bit









General
Unique ID : 202564332629411613841478280206671131296 (0x986478ACDB3FF3279D6337E9DD5FB2A0)
Complete name : F:\2000 - Приключения Рокки и Буллвинкля.mkv
Format : Matroska
Format version : Version 2
File size : 4.33 GiB
Duration : 1h 27mn
Overall bit rate : 7 046 Kbps
Encoded date : UTC 2014-01-30 13:23:19
Writing application : mkvmerge v6.1.0 ('Old Devil') built on Mar 4 2013 09:10:42
Writing library : libebml v1.3.0 + libmatroska v1.4.0

Video
ID : 1
Format : AVC
Format/Info : Advanced Video Codec
Format profile : High@L4.1
Format settings, CABAC : Yes
Format settings, ReFrames : 4 frames
Codec ID : V_MPEG4/ISO/AVC
Duration : 1h 27mn
Bit rate : 6 291 Kbps
Width : 1 920 pixels
Height : 800 pixels
Display aspect ratio : 2.40:1
Frame rate : 25.000 fps
Color space : YUV
Chroma subsampling : 4:2:0
Bit depth : 8 bits
Scan type : Progressive
Bits/(Pixel*Frame) : 0.164
Stream size : 3.78 GiB (87%)
Writing library : x264 core 130 r2273 b3065e6
Encoding settings : cabac=1 / ref=4 / deblock=1:-1:-1 / analyse=0x3:0x113 / me=umh / subme=8 / psy=1 / psy_rd=1.00:0.15 / mixed_ref=1 / me_range=16 / chroma_me=1 / trellis=1 / 8x8dct=1 / cqm=0 / deadzone=21,11 / fast_pskip=1 / chroma_qp_offset=-3 / threads=6 / lookahead_threads=1 / sliced_threads=0 / nr=0 / decimate=1 / interlaced=0 / bluray_compat=0 / constrained_intra=0 / bframes=3 / b_pyramid=2 / b_adapt=2 / b_bias=0 / direct=3 / weightb=1 / open_gop=0 / weightp=2 / keyint=250 / keyint_min=25 / scenecut=40 / intra_refresh=0 / rc_lookahead=50 / rc=2pass / mbtree=1 / bitrate=6291 / ratetol=1.0 / qcomp=0.60 / qpmin=0 / qpmax=69 / qpstep=4 / cplxblur=20.0 / qblur=0.5 / vbv_maxrate=50000 / vbv_bufsize=50000 / nal_hrd=none / ip_ratio=1.40 / aq=1:1.00
Default : Yes
Forced : No

Audio
ID : 2
Format : DTS
Format/Info : Digital Theater Systems
Codec ID : A_DTS
Duration : 1h 27mn
Bit rate mode : Constant
Bit rate : 755 Kbps
Channel(s) : 6 channels
Channel positions : Front: L C R, Side: L R, LFE
Sampling rate : 48.0 KHz
Bit depth : 24 bits
Compression mode : Lossy
Stream size : 475 MiB (11%)
Default : Yes
Forced : No




Скачать Приключения.Рокки.и.Буллвинкля.The.Adventures.of.Rocky.&.Bullwinkle.(Дес.МакАнуфф).[2000.мультфильм.фэнтези.комедия.приключения.семейный.BDRip].[1080p].[MVO].[Лицензия].[R.G.ОбЛоМоВ].torrent без регистрации
Золото ЗОЛОТАЯ РАЗДАЧА! СКАЧАННОЕ НЕ ЗАСЧИТЫВАЕТСЯ! Золото
Дата: Зарегистрирован   [ Тип: внутренний ] Как тут cкачать?
MAGNET ссылка
MAGNET ссылка


Скачать .torrent

22 KB

Статус: * не проверено
Скачан: торрент - 121 раз, раздача полностью - 0 раз
Размер: 4,33 GB
Оценка:  5 (Голосов: 2)
Поблагодарили: 3
Поделиться ссылкой на эту раздачу с друзьями:
В контактеFacebookОдноклассникиTwitterLivejournalМой МирLiveinternet
 

 
Показать сообщения:    


Вы не можете начинать темы
Вы не можете отвечать на сообщения
Вы не можете редактировать свои сообщения
Вы не можете удалять свои сообщения
Вы не можете голосовать в опросах
Вы не можете прикреплять файлы к сообщениям
Вы можете скачивать файлы