Loading...
Error

Скачать Шина королева джунглей / Sheena (Джон Гиллермин) [1984, фэнтези, боевик, приключения, DVDRip-AVC] [MVO]+[AVO]+[Оригинал]+[Sub] торрент без регистрации

 
Статистика раздачи
Размер:  2,2 GB   |    Скачан:  115 раз
Сидов:  1  [  0 KB/s  ]  
 
Автор Сообщение

Marsianka

[] 

Страна: Великобритания, США
Жанр: фэнтези, боевик, приключения
Год выпуска: 1984
Продолжительность: 01:56:22
Перевод: Профессиональный (многоголосый, закадровый)(OPT) + Авторский (Максим Логинофф) + Оригинальный
Субтитры: английские
Режиссер: Джон Гиллермин / John Guillermin
В ролях: Таня Робертс (Sheena), Тед Уасс (Vic Casey), Донован Скотт (Fletcher ('Fletch')), Элизабет Ренье Торо (Shaman), Франс Зобда (Countess Zanda), Тревор Томас (Prince Otwani), Клифтон Джонс (King Jabalani), Джон Форджэм (Colonel Jorgensen), Эррол Джон (Boto), Сильвестр Уильямс (Juka), Боб Шерман (Grizzard), Майкл Шэннон (Phillip Ames)
Описание: Что делает белокурая, дикая и воинственная красавица в африканских джунглях? Как она сюда попала? Это Шина - королева джунглей. Её белые родители были убиты во время сафари, а девочку взяла на воспитание колдунья из местного племени. Шина выросла, теперь она полна сил, очаровательна, владеет магией и защищает африканские джунгли и их обитателей, как свой собственный дом, от вторжения чужаков!


MPAA: PG - Рекомендуется присутствие родителей
Семпл
Качество: DVDRip ( DVD-5 | editbox )
Контейнер: MKV

Видео: AVC, 704x354 @ 834x354 (2.35:1), 2125 kbps, 23,976 fps, 0,356 bpp
Аудио 1: русский / AC3 / 2.0 / 48 kHz / 192 kbps
Аудио 2: русский / AC3 / 2.0 / 48 kHz / 192 kbps
Аудио 3: английский / AC3 / 2.0 / 48 kHz / 192 kbps
Навигация по главам: есть



Format : Matroska
Format version : Version 2
File size : 2.20 GiB
Duration : 1h 56mn
Overall bit rate : 2 703 Kbps
Movie name : = Шина - королева джунглей / Sheena DVDRip by SC Kosmos =
Encoded date : UTC 2014-02-01 09:52:48
Writing application : mkvmerge v3.3.0 ('Language') gebaut am Mar 24 2010 14:59:24
Writing library : libebml v0.8.0 + libmatroska v0.9.0

Video
ID : 1
Format : AVC
Format/Info : Advanced Video Codec
Format profile : High@L4.1
Format settings, CABAC : Yes
Format settings, ReFrames : 10 frames
Codec ID : V_MPEG4/ISO/AVC
Duration : 1h 56mn
Bit rate : 2 125 Kbps
Width : 704 pixels
Height : 354 pixels
Display aspect ratio : 2.35:1
Original display aspect ratio : 2.35:1
Frame rate : 23.976 fps
Color space : YUV
Chroma subsampling : 4:2:0
Bit depth : 8 bits
Scan type : Progressive
Bits/(Pixel*Frame) : 0.356
Stream size : 1.69 GiB (77%)
Title : Шина - королева джунглей / Sheena DVDRip by SC Kosmos
Writing library : x264 core 142 r2389 956c8d8
Encoding settings : cabac=1 / ref=10 / deblock=1:-2:-2 / analyse=0x3:0x113 / me=umh / subme=11 / psy=1 / psy_rd=1.00:0.00 / mixed_ref=1 / me_range=48 / chroma_me=1 / trellis=2 / 8x8dct=1 / cqm=0 / deadzone=21,11 / fast_pskip=0 / chroma_qp_offset=-2 / threads=12 / lookahead_threads=1 / sliced_threads=0 / nr=0 / decimate=1 / interlaced=0 / bluray_compat=0 / constrained_intra=0 / bframes=10 / b_pyramid=2 / b_adapt=1 / b_bias=0 / direct=1 / weightb=1 / open_gop=0 / weightp=2 / keyint=240 / keyint_min=23 / scenecut=40 / intra_refresh=0 / rc_lookahead=40 / rc=2pass / mbtree=0 / bitrate=2125 / ratetol=1.0 / qcomp=0.60 / qpmin=0 / qpmax=69 / qpstep=4 / cplxblur=20.0 / qblur=0.5 / vbv_maxrate=50000 / vbv_bufsize=50000 / nal_hrd=none / filler=0 / ip_ratio=1.40 / pb_ratio=1.30 / aq=1:1.00
Language : English
Default : No
Forced : No

Audio #1
ID : 2
Format : AC-3
Format/Info : Audio Coding 3
Mode extension : CM (complete main)
Codec ID : A_AC3
Duration : 1h 56mn
Bit rate mode : Constant
Bit rate : 192 Kbps
Channel(s) : 2 channels
Channel positions : Front: L R
Sampling rate : 48.0 KHz
Bit depth : 16 bits
Compression mode : Lossy
Stream size : 160 MiB (7%)
Title : MVO (ORT)
Language : Russian
Default : Yes
Forced : No

Audio #2
ID : 3
Format : AC-3
Format/Info : Audio Coding 3
Format profile : Dolby Digital
Mode extension : CM (complete main)
Codec ID : A_AC3
Duration : 1h 56mn
Bit rate mode : Constant
Bit rate : 192 Kbps
Channel(s) : 2 channels
Channel positions : Front: L R
Sampling rate : 48.0 KHz
Bit depth : 16 bits
Compression mode : Lossy
Stream size : 160 MiB (7%)
Title : AVO (Максим Логинофф)
Language : Russian
Default : No
Forced : No

Audio #3
ID : 4
Format : AC-3
Format/Info : Audio Coding 3
Format profile : Dolby Digital
Mode extension : CM (complete main)
Codec ID : A_AC3
Duration : 1h 56mn
Bit rate mode : Constant
Bit rate : 192 Kbps
Channel(s) : 2 channels
Channel positions : Front: L R
Sampling rate : 48.0 KHz
Bit depth : 16 bits
Compression mode : Lossy
Stream size : 160 MiB (7%)
Language : English
Default : No
Forced : No

Text
ID : 5
Format : UTF-8
Codec ID : S_TEXT/UTF8
Codec ID/Info : UTF-8 Plain Text
Language : English
Default : Yes
Forced : No

Menu
00:00:00.000 : en:Chapter 01
00:16:27.500 : en:Chapter 02
00:18:56.500 : en:Chapter 03
00:19:17.368 : en:Chapter 04
00:20:54.501 : en:Chapter 05
00:23:39.335 : en:Chapter 06
00:25:03.002 : en:Chapter 07
00:27:07.569 : en:Chapter 08
00:29:58.503 : en:Chapter 09
00:32:25.371 : en:Chapter 10
00:34:23.239 : en:Chapter 11
00:39:08.873 : en:Chapter 12
00:44:15.774 : en:Chapter 13
00:48:29.375 : en:Chapter 14
00:49:59.942 : en:Chapter 15
00:54:31.376 : en:Chapter 16
00:58:32.876 : en:Chapter 17
01:02:53.276 : en:Chapter 18
01:07:27.077 : en:Chapter 19
01:11:02.577 : en:Chapter 20
01:14:03.677 : en:Chapter 21
01:17:59.211 : en:Chapter 22
01:19:41.478 : en:Chapter 23
01:23:50.511 : en:Chapter 24
01:31:44.011 : en:Chapter 25
01:39:46.011 : en:Chapter 26
01:44:35.612 : en:Chapter 27
01:47:45.879 : en:Chapter 28




Скачать Шина.королева.джунглей.Sheena.(Джон.Гиллермин).[1984.фэнтези.боевик.приключения.DVDRip-AVC].[MVO]+[AVO]+[Оригинал]+[Sub].torrent без регистрации
Золото ЗОЛОТАЯ РАЗДАЧА! СКАЧАННОЕ НЕ ЗАСЧИТЫВАЕТСЯ! Золото
Дата: Зарегистрирован   [ Тип: внутренний ] Как тут cкачать?
MAGNET ссылка
MAGNET ссылка


Скачать .torrent

11 KB

Статус: проверено DHT
Скачан: торрент - 115 раз, раздача полностью - 11 раз
Размер: 2,2 GB
Оценка:  - (Голосов: 0)
Поблагодарили: 0
Поделиться ссылкой на эту раздачу с друзьями:
В контактеFacebookОдноклассникиTwitterLivejournalМой МирLiveinternet
 

 
Показать сообщения:    


Вы не можете начинать темы
Вы не можете отвечать на сообщения
Вы не можете редактировать свои сообщения
Вы не можете удалять свои сообщения
Вы не можете голосовать в опросах
Вы не можете прикреплять файлы к сообщениям
Вы можете скачивать файлы