Loading...
Error

Скачать Бильярдист / The Hustler (Роберт Россен / Robert Rossen) [1961, драма, мелодрама, спорт, HDTVRip] [MVO] (1-ый канал) торрент без регистрации

 
Статистика раздачи
Размер:  1,47 GB   |    Скачан:  99 раз
Сидов:  1  [  0 KB/s  ]  
 
Автор Сообщение

leon030982

[] 

Бильярдист / The Hustler


Год выпуска: 1961
Страна: США
Студия: Rossen Films, Twentieth Century Fox Film Corporation
Жанр: драма, мелодрама, спорт
Продолжительность: 02:09:04
Перевод: Профессиональный (многоголосый закадровый)[1 канал]
Cубтитры: нет
Оригинальная аудиодорожка: нет

Режиссер: Роберт Россен / Robert Rossen

В ролях: Пол Ньюман, Джекки Глисон, Пайпер Лори, Джордж К. Скотт, Майрон МакКормик, Мюррэй Хэмилтон, Майкл Константин, Стефан Гираш, Клиффорд А. Пеллоу, Джэйк ЛаМотта

Описание: Бильярдист Эдди Фелсон по прозвищу Фаст действовал просто: сначала он позволял противнику выигрывать, потом взвинчивал ставки и буквально раздевал соперника до нитки. В Нью-Йорке произошел легендарный поединок: Фаст бросил вызов Толстяку Миннесоте…

IMDB

Качество видео: HDTVRip
Формат видео: AVI
Видео кодек: XviD
Аудио кодек: AC3
Видео: XviD 720x400 (16:9) 25.0 fps Bit rate 1399 Kbps b/p 0.194
Аудио: AC3 48.0KHz 2ch 224Kbps
Оскар, 1962 год
Победитель (2):
Лучшая работа оператора (ч/б фильмы)
Лучшая работа художника (ч/б фильмы)
Номинации (7):
Лучший фильм
Лучшая мужская роль (Пол Ньюман)
Лучшая женская роль (Пайпер Лори)
Лучшая мужская роль второго плана (Джекки Глисон)
Лучшая мужская роль второго плана (Джордж К. Скотт)
Лучший режиссер (Роберт Россен)
Лучший адаптированный сценарий


Золотой глобус, 1962 год
Номинации (3):
Лучшая мужская роль (драма) (Пол Ньюман)
Лучшая мужская роль второго плана (Джордж К. Скотт)
Лучшая мужская роль второго плана (Джекки Глисон)


Британская академия, 1962 год
Победитель (2):
Лучший фильм
Лучший иностранный актер (Пол Ньюман)
Номинации (1):
Лучшая иностранная актриса (Пайпер Лори)
General
Complete name : E:\torrent\The Hustler_HDTV 1080i_rip.avi
Format : AVI
Format/Info : Audio Video Interleave
File size : 1.47 GiB
Duration : 2h 9mn
Overall bit rate : 1 633 Kbps
Writing library : VirtualDub build 32842/release
Video
ID : 0
Format : MPEG-4 Visual
Format profile : Advanced Simple@L5
Format settings, BVOP : Yes
Format settings, QPel : No
Format settings, GMC : No warppoints
Format settings, Matrix : Default (H.263)
Codec ID : XVID
Codec ID/Hint : XviD
Duration : 2h 9mn
Bit rate : 1 399 Kbps
Width : 720 pixels
Height : 400 pixels
Display aspect ratio : 16:9
Frame rate : 25.000 fps
Color space : YUV
Chroma subsampling : 4:2:0
Bit depth : 8 bits
Scan type : Progressive
Bits/(Pixel*Frame) : 0.194
Stream size : 1.26 GiB (86%)
Writing library : XviD 1.2.1 (UTC 2008-12-04)
Audio
ID : 1
Format : AC-3
Format/Info : Audio Coding 3
Mode extension : CM (complete main)
Codec ID : 2000
Duration : 2h 9mn
Bit rate mode : Constant
Bit rate : 224 Kbps
Channel(s) : 2 channels
Channel positions : Front: L R
Sampling rate : 48.0 KHz
Bit depth : 16 bits
Stream size : 207 MiB (14%)
Alignment : Aligned on interleaves
Interleave, duration : 40 ms (1.00 video frame)
Interleave, preload duration : 512 ms



Скачать Бильярдист.The.Hustler.(Роберт.Россен.Robert.Rossen).[1961.драма.мелодрама.спорт.HDTVRip].[MVO].(1-ый.канал).torrent без регистрации
Золото ЗОЛОТАЯ РАЗДАЧА! СКАЧАННОЕ НЕ ЗАСЧИТЫВАЕТСЯ! Золото
Дата: Зарегистрирован   [ Тип: внутренний ] Как тут cкачать?
MAGNET ссылка
MAGNET ссылка


Скачать .torrent

15 KB

Статус: проверено DHT
Скачан: торрент - 99 раз, раздача полностью - 1 раз
Размер: 1,47 GB
Оценка:  5 (Голосов: 1)
Поблагодарили: 1
Поделиться ссылкой на эту раздачу с друзьями:
В контактеFacebookОдноклассникиTwitterLivejournalМой МирLiveinternet
 

 
Показать сообщения:    


Вы не можете начинать темы
Вы не можете отвечать на сообщения
Вы не можете редактировать свои сообщения
Вы не можете удалять свои сообщения
Вы не можете голосовать в опросах
Вы не можете прикреплять файлы к сообщениям
Вы можете скачивать файлы