Loading...
Error

Скачать Старые ворчуны разбушевались / Grumpier Old Men (Ховард Дойч / Howard Deutch) [1995, комедия, HDRip] [Dub] (Варус Видео) + [MVO] (НТВ+) + [MVO] (ТВ3) торрент без регистрации

 
Статистика раздачи
Размер:  1,46 GB   |    Скачан:  123 раза
Сидов:  1  [  0 KB/s  ]  
 
Автор Сообщение

leon030982

[] 

Старые ворчуны разбушевались / Grumpier Old Men


Год выпуска: 1995
Страна: США
Жанр: комедия
Продолжительность: 01:41:02
Перевод 1: Профессиональный (дублированный) [Варус Видео]
Перевод 2: Профессиональный (многоголосый закадровый) [НТВ+]
Перевод 3: Профессиональный (многоголосый закадровый) [ТВ3]
Cубтитры: нет

Режиссер: Ховард Дойч / Howard Deutch

В ролях: Уолтер Мэттау, Джек Леммон, Софи Лорен, Энн-Маргрет, Бёрджесс Мередит, Дэрил Ханна, Кевин Поллак, Кэти Сагона, Энн Морган Гилберт, Джеймс Энделин

Описание: Лето пришло в городок Вадасу в Миннесоте и все растаяло. Растаял лед на реке, растаяла даже многолетняя воина между соседями Джоном Густафсоном и Максом Голдманом. После того, как Джон женился на Ариэль, Макс остался один. Пока в городке не появилась жизнерадостная особа.
Она собирается превратить их любимый магазинчик, где они всю жизнь покупали всякие наживки и приманки для рыбной ловли, в итальянский ресторан. Приятели объявили ей войну и начали планомерную кампанию всяческих интриг и сплетен, которые быстро охватили весь городок.
Но они не учли характера Марии, которая вовсе не собирается сдаваться без боя и готовит сокрушительное «контрнаступление».




Качество видео: HDRip
Формат видео: AVI
Видео кодек: XviD
Аудио кодек: AC-3
Видео: 720x400 (1.80:1), 23.976 fps, XviD build 41 ~1475 kbps avg, 0.21 bit/pixel
Аудио 1: 48 kHz, AC3 Dolby Digital, 2/0 (L,R) ch, ~192.00 kbps avg - дубляж
Аудио 2: 48 kHz, AC3 Dolby Digital, 2/0 (L,R) ch, ~192.00 kbps avg - mvo НТВ+
Аудио 3: 48 kHz, AC3 Dolby Digital, 2/0 (L,R) ch, ~192.00 kbps avg - mvo ТВ3
Полное имя : K:\Старые ворчуны разбушевались.avi
Формат : AVI
Формат/Информация : Audio Video Interleave
Размер файла : 1,46 Гбайт
Продолжительность : 1 ч. 41 м.
Общий поток : 2072 Кбит/сек
Название фильма : Ворчливые старики разбушевались / Старые ворчуны разбушевались / Grumpier Old Men (1995)
Режиссёр : miha2154
Программа кодирования : VirtualDubMod 1.5.10.2 (build 2540/release)
Библиотека кодирования : VirtualDubMod build 2540/release

Видео
Идентификатор : 0
Формат : MPEG-4 Visual
Профиль формата : Advanced Simple@L5
Параметр BVOP формата : 2
Параметр QPel формата : Нет
Параметр GMC формата : Без точки перехода
Параметр матрицы формата : Default (MPEG)
Идентификатор кодека : XVID
Идентификатор кодека/Подсказка : XviD
Продолжительность : 1 ч. 41 м.
Битрейт : 1477 Кбит/сек
Ширина : 720 пикселей
Высота : 400 пикселей
Соотношение сторон : 16:9
Частота кадров : 23,976 кадра/сек
Цветовое пространство : YUV
Субдискретизация насыщенности : 4:2:0
Битовая глубина : 8 бит
Тип развёртки : Прогрессивная
Метод сжатия : С потерями
Бит/(Пиксели*Кадры) : 0.214
Размер потока : 1,04 Гбайт (71%)
Библиотека кодирования : XviD 1.1.0 (UTC 2005-11-22)
Аудио #1
Идентификатор : 1
Формат : AC-3
Формат/Информация : Audio Coding 3
Расширение режима : CM (complete main)
Параметр Endianness формата : Big
Идентификатор кодека : 2000
Продолжительность : 1 ч. 41 м.
Вид битрейта : Постоянный
Битрейт : 192 Кбит/сек
Каналы : 2 канала
Расположение каналов : Front: L R
Частота : 48,0 КГц
Битовая глубина : 16 бит
Метод сжатия : С потерями
Размер потока : 139 Мбайт (9%)
Выравнивание : Разделение по промежуткам
Продолжительность промежутка : 42 мс. (1,00 видеокадр)
Время предзагрузки промежутка : 500 мс.
Заголовок : Профессиональный (полное дублирование) Варус Видео
Аудио #2
Идентификатор : 2
Формат : AC-3
Формат/Информация : Audio Coding 3
Расширение режима : CM (complete main)
Параметр Endianness формата : Big
Идентификатор кодека : 2000
Продолжительность : 1 ч. 41 м.
Вид битрейта : Постоянный
Битрейт : 192 Кбит/сек
Каналы : 2 канала
Расположение каналов : Front: L R
Частота : 48,0 КГц
Битовая глубина : 16 бит
Метод сжатия : С потерями
Размер потока : 139 Мбайт (9%)
Выравнивание : Разделение по промежуткам
Продолжительность промежутка : 42 мс. (1,00 видеокадр)
Время предзагрузки промежутка : 500 мс.
Заголовок : Профессиональный (многоголосый закадровый) НТВ+
Аудио #3
Идентификатор : 3
Формат : AC-3
Формат/Информация : Audio Coding 3
Расширение режима : CM (complete main)
Параметр Endianness формата : Big
Идентификатор кодека : 2000
Продолжительность : 1 ч. 41 м.
Вид битрейта : Постоянный
Битрейт : 192 Кбит/сек
Каналы : 2 канала
Расположение каналов : Front: L R
Частота : 48,0 КГц
Битовая глубина : 16 бит
Метод сжатия : С потерями
Размер потока : 139 Мбайт (9%)
Выравнивание : Разделение по промежуткам
Продолжительность промежутка : 42 мс. (1,00 видеокадр)
Время предзагрузки промежутка : 500 мс.
Заголовок : Профессиональный (многоголосый закадровый) ТВ3



Скачать Старые.ворчуны.разбушевались.Grumpier.Old.Men.(Ховард.Дойч.Howard.Deutch).[1995.комедия.HDRip].[Dub].(Варус.Видео).+.[MVO].(НТВ+).+.[MVO].(ТВ3).torrent без регистрации
Золото ЗОЛОТАЯ РАЗДАЧА! СКАЧАННОЕ НЕ ЗАСЧИТЫВАЕТСЯ! Золото
Дата: Зарегистрирован   [ Тип: внутренний ] Как тут cкачать?
MAGNET ссылка
MAGNET ссылка


Скачать .torrent

15 KB

Статус: проверено DHT
Скачан: торрент - 123 раз, раздача полностью - 47 раз
Размер: 1,46 GB
Оценка:  - (Голосов: 0)
Поблагодарили: 2
Поделиться ссылкой на эту раздачу с друзьями:
В контактеFacebookОдноклассникиTwitterLivejournalМой МирLiveinternet
 

 
Показать сообщения:    


Вы не можете начинать темы
Вы не можете отвечать на сообщения
Вы не можете редактировать свои сообщения
Вы не можете удалять свои сообщения
Вы не можете голосовать в опросах
Вы не можете прикреплять файлы к сообщениям
Вы можете скачивать файлы