Loading...
Error

Скачать Вор / Thief (Майкл Манн) [1981, боевик, триллер, драма, криминал, BDRip] [MVO]+[AVO]x3+[Sub]x2 торрент без регистрации

 
Статистика раздачи
Размер:  2,69 GB   |    Скачан:  104 раза
Сидов:  1  [  0 KB/s  ]  
 
Автор Сообщение

Marsianka

[] 

Информация о фильме
Название: Вор
Оригинальное название: Thief
Год выхода: 1981
Жанр: боевик, триллер, драма, криминал
Режиссер: Майкл Манн
В ролях: Джеймс Каан, Джеймс Белуши, Тьюсдей Уэлд, Уилли Нельсон, Роберт Проски, Том Синьорелли, Дэннис Фарина, Джон Сантуччи, Гэвин МакФадьен, Чак Адамсон, Уолтер Скотт, Лора Стейли, Хэл Фрэнк, Дел Клоуз, Джон Капелос, Карен Берковичи, Майк Дженовезе, Уильям Л. Петерсен, Натан Дэвис, Томас О. Эрхарт мл., Мардж Котлиски, Дж. Джей Саундерс, Патти Росс, Рон Л. Кокс

О фильме:
Фрэнк - эксперт по вскрытию сейфов, профессионал высшей пробы, и работы для него всегда хватает. Но он уже побывал за решеткой, и возвращаться туда не собирается. Нужен всего один, но верный взлом. И тут дразнящая мечта о будущем заставляет его потерять осторожность: поддавшись искушению, матерый волк-одиночка соглашается поработать на крупного мафиози! Капкан захлопнулся, разовых контрактов с мафией не бывает. Лучший друг Фрэнка убит, любимая женщина - в руках бандитов, а сам он становится их собственностью



Страна: США / Mann/Caan Productions
Продолжительность: 02:04:41
Перевод: Профессиональный многоголосый, авторский

Файл
Качество: BDRip [ BDRemux]
Видео: PXviD, 1849 Кбит/с, 720x400, 23.976 кадр/с
Аудио #1: Русский (AC3, 2 ch, 192 Кбит/с) /PPПрофессиональный многоголосый
Аудио #2: Английский (AC3, 6 ch, 448 Кбит/с)
Аудио #3: Русский (AC3, 2 ch, 192 Кбит/с) /PPАвторский одноголосыйPP(Гаврилов) - отдельно
Аудио #4: Русский (AC3, 2 ch, 192 Кбит/с) /PPАвторский одноголосыйPP(Михалев) - отдельно
Аудио #5: Русский (AC3, 2 ch, 192 Кбит/с) /PPАвторский одноголосыйPP(Гаевский) - отдельно

Субтитры: Русские, английские (внешние srt*)
Семпл
За исходник спасибо HD TRACKER
В переводе Гаевского присутствует ненормативная лексика!P
Format : AVI
Format/Info : Audio Video Interleave
Format profile : OpenDML
File size : 2.18 GiB
Duration : 2h 4mn
Overall bit rate : 2 507 Kbps
Movie name : Thief.1981.XviD.BDRip.-MediaClub
Director : -=MediaClub - Odessit=-
Writing application : VirtualDubMod 1.5.10.3 | www.virtualdub-fr.org || (build 2550/release)

Video
ID : 0
Format : MPEG-4 Visual
Format profile : Advanced Simple@L5
Format settings, BVOP : 1
Format settings, QPel : No
Format settings, GMC : No warppoints
Format settings, Matrix : Custom
Codec ID : XVID
Codec ID/Hint : XviD
Duration : 2h 4mn
Bit rate : 1 849 Kbps
Width : 720 pixels
Height : 400 pixels
Display aspect ratio : 16:9
Frame rate : 23.976 fps
Color space : YUV
Chroma subsampling : 4:2:0
Bit depth : 8 bits
Scan type : Progressive
Compression mode : Lossy
Bits/(Pixel*Frame) : 0.268
Stream size : 1.61 GiB (74%)
Writing library : XviD 73

Audio #1
ID : 1
Format : AC-3
Format/Info : Audio Coding 3
Mode extension : CM (complete main)
Codec ID : 2000
Duration : 2h 4mn
Bit rate mode : Constant
Bit rate : 192 Kbps
Channel(s) : 2 channels
Channel positions : Front: L R
Sampling rate : 48.0 KHz
Bit depth : 16 bits
Compression mode : Lossy
Stream size : 171 MiB (8%)
Alignment : Split accross interleaves
Interleave, duration : 42 ms (1.00 video frame)
Interleave, preload duration : 500 ms

Audio #2
ID : 2
Format : AC-3
Format/Info : Audio Coding 3
Mode extension : CM (complete main)
Codec ID : 2000
Duration : 2h 4mn
Bit rate mode : Constant
Bit rate : 448 Kbps
Channel(s) : 6 channels
Channel positions : Front: L C R, Side: L R, LFE
Sampling rate : 48.0 KHz
Bit depth : 16 bits
Compression mode : Lossy
Stream size : 400 MiB (18%)
Alignment : Split accross interleaves
Interleave, duration : 42 ms (1.00 video frame)
Interleave, preload duration : 500 ms
Релиз от: |



Скачать Вор.Thief.(Майкл.Манн).[1981.боевик.триллер.драма.криминал.BDRip].[MVO]+[AVO]x3+[Sub]x2.torrent без регистрации
Золото ЗОЛОТАЯ РАЗДАЧА! СКАЧАННОЕ НЕ ЗАСЧИТЫВАЕТСЯ! Золото
Дата: Зарегистрирован   [ Тип: внутренний ] Как тут cкачать?
MAGNET ссылка
MAGNET ссылка


Скачать .torrent

14 KB

Статус: проверено DHT
Скачан: торрент - 104 раз, раздача полностью - 4 раз
Размер: 2,69 GB
Оценка:  - (Голосов: 0)
Поблагодарили: 0
Поделиться ссылкой на эту раздачу с друзьями:
В контактеFacebookОдноклассникиTwitterLivejournalМой МирLiveinternet
 

 
Показать сообщения:    


Вы не можете начинать темы
Вы не можете отвечать на сообщения
Вы не можете редактировать свои сообщения
Вы не можете удалять свои сообщения
Вы не можете голосовать в опросах
Вы не можете прикреплять файлы к сообщениям
Вы можете скачивать файлы