Loading...
Error

Скачать Земля мертвых / Land of the Dead (Джордж А. Ромеро / George A. Romero) [2005, Ужасы, фантастика, HDRip] [Режиссёрская версия / Unrated Director's cut] [MVO] торрент без регистрации

 
Статистика раздачи
Размер:  744 MB   |    Скачан:  106 раз
Сидов:  1  [  0 KB/s  ]  
 
Автор Сообщение

leon030982

[] 

Земля мертвых / Land of the Dead
Режиссёрская версия / Unrated Director's cut


Страна: Канада, Франция, США
Жанр: Ужасы, фантастика
Год выпуска: 2005
Продолжительность: 01:36:53
Перевод: Профессиональный (многоголосый закадровый)
Cубтитры: нет
Режиссер: Джордж А. Ромеро / George A. Romero
В ролях: Саймон Бейкер, Джон Легуизамо, Деннис Хоппер, Азия Ардженто, Роберт Джой, Юджин Кларк, Джоэнн Боланд, Тони Наппо, Дженнифер Бэкстер, Бойд Бэнкс
Описание: Ожившие мертвецы — зомби заполонили весь мир, и последние люди пытаются спастись, будучи заложниками ситуации в городе, окружённом неприступной стеной. Однако скоро и они окажутся под угрозой со стороны новых, более совершенных и более опасных существ…

Рейтинг MPAA "R": Лицам до 17 лет обязательно присутствие взрослого
Качество видео: HDRip
Формат видео: AVI
Видео: 688x288 (2.39:1), 23.976 fps, XviD ~935 kbps avg, 0.20 bit/pixel
Аудио: 48 kHz, MPEG Layer 3, 2 ch, ~128.00 kbps avg
General
Complete name : D:\Zemlya_mertwyh_[rutracker.org]_HDRip_745Mb_Magg555.avi
Format : AVI
Format/Info : Audio Video Interleave
File size : 744 MiB
Duration : 1h 36mn
Overall bit rate : 1 073 Kbps
Writing application : VirtualDubMod 1.5.10.3 | www.virtualdub-fr.org || (build 2550/release)
Writing library : VirtualDubMod build 2550/release
Video
ID : 0
Format : MPEG-4 Visual
Format profile : Advanced Simple@L5
Format settings, BVOP : 1
Format settings, QPel : No
Format settings, GMC : No warppoints
Format settings, Matrix : Default (MPEG)
Codec ID : XVID
Codec ID/Hint : XviD
Duration : 1h 36mn
Bit rate : 936 Kbps
Width : 688 pixels
Height : 288 pixels
Display aspect ratio : 2.40:1
Frame rate : 23.976 fps
Color space : YUV
Chroma subsampling : 4:2:0
Bit depth : 8 bits
Scan type : Progressive
Compression mode : Lossy
Bits/(Pixel*Frame) : 0.197
Stream size : 648 MiB (87%)
Writing library : XviD 1.2.1 (UTC 2008-12-04)
Audio
ID : 1
Format : MPEG Audio
Format version : Version 1
Format profile : Layer 3
Codec ID : 55
Codec ID/Hint : MP3
Duration : 1h 36mn
Bit rate mode : Constant
Bit rate : 128 Kbps
Channel(s) : 2 channels
Sampling rate : 48.0 KHz
Compression mode : Lossy
Stream size : 88.7 MiB (12%)
Alignment : Aligned on interleaves
Interleave, duration : 42 ms (1.00 video frame)
Interleave, preload duration : 504 ms
Writing library : LAME3.99r
Encoding settings : -m s -V 4 -q 2 -lowpass 17 -b 128



Скачать Земля.мертвых.Land.of.the.Dead.(Джордж.А.Ромеро.George.A.Romero).[2005.Ужасы.фантастика.HDRip].[Режиссёрская.версия.Unrated.Director's.cut].[MVO].torrent без регистрации
Золото ЗОЛОТАЯ РАЗДАЧА! СКАЧАННОЕ НЕ ЗАСЧИТЫВАЕТСЯ! Золото
Дата: Зарегистрирован   [ Тип: внутренний ] Как тут cкачать?
MAGNET ссылка
MAGNET ссылка


Скачать .torrent

15 KB

Статус: проверено DHT
Скачан: торрент - 106 раз, раздача полностью - 12 раз
Размер: 744 MB
Оценка:  5 (Голосов: 1)
Поблагодарили: 1
Поделиться ссылкой на эту раздачу с друзьями:
В контактеFacebookОдноклассникиTwitterLivejournalМой МирLiveinternet
 

 
Показать сообщения:    


Вы не можете начинать темы
Вы не можете отвечать на сообщения
Вы не можете редактировать свои сообщения
Вы не можете удалять свои сообщения
Вы не можете голосовать в опросах
Вы не можете прикреплять файлы к сообщениям
Вы можете скачивать файлы