Loading...
Error

Скачать Воины / Warriors (Шимон Дотан / Shimon Dotan) [1994, боевик, DVDRip] [AVO] (Андрей Гаврилов) торрент без регистрации

 
Статистика раздачи
Размер:  927 MB   |    Скачан:  145 раз
Сидов:  1  [  0 KB/s  ]  
 
Автор Сообщение

leon030982

[] 

Воины / Warriors



Год выпуска: 1994
Страна: Канада, Израиль
Жанр: боевик
Продолжительность: 01:36:21
Перевод: Авторский (одноголосый, закадровый)[Андрей Гаврилов]
Cубтитры: нет
Оригинальная аудиодорожка: нет

Режиссер: Шимон Дотан / Shimon Dotan

В ролях: Гэри Бьюзи, Майкл Паре, Уэнди Фулфорд, Катрин МакКензи, Лиз МакРэй, Гриффит Брюэр

Описание: Убийцы-профессионалы — идеальные машины для истребления всего живого. «Бойцы» спецподразделения, которое выполняет самые «грязные» задания военного начальства, живут в особой тюрьме ужесточенного режима.
Командир отряда убийц Вейл совершает побег, чтобы выполнить «свое последнее задание», и его лучший ученик, Колин Нил, отправляется в погоню, чтобы ликвидировать Вейла…




Качество видео: DVDRip
Формат видео: AVI
Видео кодек: XviD
Аудио кодек: AC3
Видео: 512x384 (1.33:1), 25 fps, XviD build 47 ~1142 kbps avg, 0.23 bit/pixel
Аудио: 48 kHz, AC3 Dolby Digital, 2/0 (L,R) ch, ~192.00 kbps avg

Исходный видеоряд с Синемагеддона.
За звуковую дорожку с переводом Андрея Гаврилова благодарим budulai-8.
За видеоряд, синхронизацию звуковой дорожки и работу со звуком огромная благодарность ale_x2008.
General
Complete name : E:\INTERNET\Воины.avi
Format : AVI
Format/Info : Audio Video Interleave
File size : 927 MiB
Duration : 1h 36mn
Overall bit rate : 1 345 Kbps
Writing application : VirtualDubMod 1.5.10.3 (build 2550/release)
Writing library : VirtualDubMod build 2550/release

Video
ID : 0
Format : MPEG-4 Visual
Format profile : Advanced Simple@L5
Format settings, BVOP : 1
Format settings, QPel : No
Format settings, GMC : No warppoints
Format settings, Matrix : Custom
Codec ID : XVID
Codec ID/Hint : XviD
Duration : 1h 36mn
Bit rate : 1 143 Kbps
Width : 512 pixels
Height : 384 pixels
Display aspect ratio : 4:3
Frame rate : 25.000 fps
Color space : YUV
Chroma subsampling : 4:2:0
Bit depth : 8 bits
Scan type : Progressive
Compression mode : Lossy
Bits/(Pixel*Frame) : 0.233
Stream size : 788 MiB (85%)
Writing library : XviD 1.2.0.dev47 (UTC 2006-11-01)

Audio
ID : 1
Format : AC-3
Format/Info : Audio Coding 3
Mode extension : CM (complete main)
Codec ID : 2000
Duration : 1h 36mn
Bit rate mode : Constant
Bit rate : 192 Kbps
Channel(s) : 2 channels
Channel positions : Front: L R
Sampling rate : 48.0 KHz
Bit depth : 16 bits
Compression mode : Lossy
Stream size : 132 MiB (14%)
Alignment : Split accross interleaves
Interleave, duration : 40 ms (1.00 video frame)
Interleave, preload duration : 500 ms
Language : English



Скачать Воины.Warriors.(Шимон.Дотан.Shimon.Dotan).[1994.боевик.DVDRip].[AVO].(Андрей.Гаврилов).torrent без регистрации
Золото ЗОЛОТАЯ РАЗДАЧА! СКАЧАННОЕ НЕ ЗАСЧИТЫВАЕТСЯ! Золото
Дата: Зарегистрирован   [ Тип: внутренний ] Как тут cкачать?
MAGNET ссылка
MAGNET ссылка


Скачать .torrent

19 KB

Статус: проверено DHT
Скачан: торрент - 145 раз, раздача полностью - 2 раз
Размер: 927 MB
Оценка:  - (Голосов: 0)
Поблагодарили: 1
Поделиться ссылкой на эту раздачу с друзьями:
В контактеFacebookОдноклассникиTwitterLivejournalМой МирLiveinternet
 

 
Показать сообщения:    


Вы не можете начинать темы
Вы не можете отвечать на сообщения
Вы не можете редактировать свои сообщения
Вы не можете удалять свои сообщения
Вы не можете голосовать в опросах
Вы не можете прикреплять файлы к сообщениям
Вы можете скачивать файлы