Loading...
Error

Скачать Мунфлит / Moonfleet (01x01-02 из 2) (Энди де Эммони) [2013, приключения, драма, HDTVRip] [720p] [MVO (Albion-Studio)] торрент без регистрации

 
Статистика раздачи
Размер:  2,43 GB   |    Скачан:  108 раз

Полного источника не было: 23 минуты

 
Автор Сообщение

МихаНЕзатор

[] 

Информация о фильме
Название: Мунфлит
Оригинальное название: Moonfleet
Год выпуска: 2013
Жанр: приключения, драма
Выпущено: Великобритания, Sky 1 HD
Режиссер: Энди де Эммони

В ролях: Рэй Уинстон, Анайрин Барнард, Софи Куксон, Энтони Офоеджбу, Фил Дэниелс, Лоркан Кранич, Пиппа Хэйвуд, Ник Ли, Йен МакЭлхинни, Лесли Викерадж

О фильме: Фильм снят по одноименному роману Джона Мида Фолкнера. Англия, рыбацкое селение Мунфлит на морском побережье Дорсета в 1742 году, контробандисты, "красные мундиры" ... в центре повествования противостояние "крысиного короля" - главы контробандистов Эльзевира Блока всему существующему строю и, в часности, его олицетвореню - судье Махоуну. После убийства Махоуном Дэйви Блока, сына Эльзевира Блока, последний приючает, друга своего убитого сына, Джона Трэнчарда, который, в итоге, и заменяет ему сына. Мальчик же видит в своём спутнике только лучшие черты, и это пробуждает душу старого греховодника к новой жизни Полная приключений и захватывающего экшена история, история любви Джона Трэнчарда и Грэйс Махоун, не оставит равнодушным никого.



Выпущено: Великобритания, Sky 1 HD
Продолжительность: 01:26:24
Озвучивание: Любительское многоголосое (Albion Studio)

Файл
Кодек: MPEG-4 AVC
Качество: HDTVRip 720p
Видео: 2853 Кбит/с, 1280x720, 25.000 кадр/с
Звук:
Аудио #1: Русский (AC3, 6 ch, 448 Кбит/с) / Любительский многоголосый (Albion Studio)
Аудио #2: Русский (AC3, 2 ch, 192 Кбит/с) / Любительский многоголосый (Albion Studio)
Аудио #3: Английский (AC3, 6 ch, 448 Кбит/с)
Субтитры: Русские (Albion Studio)

АНОНСЫ ПОПУЛЯРНЫХ РАЗДАЧ
Адам Шухарт - Джон Трэнчард
Ольга Никитина - Грэйс Махоун, тетя Джэйн
Михаил Бигыч - Эльзевир Блок, Черная борода, эпизоды
Влад Третьяк - Судья Махоун, Ювелир
Алексей Леонов - Рэтси, Пастор
Юрий Ковалев - Контробандист, эпизоды
Михаил Гапонов - Мич, Надзиратель
Денис Засимов - Гарри
Михаил Ананьев - Дэйви Блок, Офицер красных мундиров, эпизоды
Мария Аскольта - Молли
Константин Силаев - Офицер в тюрьме
Марина Ковалева - Тетя Лидия
Звукорежиссер: Михаил Бигыч

General
Complete name : E:Раздачи от Albion-StudioMoonflet 2013 (UK) HDTVRip 720p Eng Rus MVO Albion Studio.mkv
Format : Matroska
Format version : Version 4 / Version 2
File size : 2.43 GiB
Duration : 1h 26mn
Overall bit rate : 4 021 Kbps
Encoded date : UTC 2014-01-30 13:49:09
Writing application : mkvmerge v6.7.0 ('Back to the Ground') 64bit built on Jan 8 2014 15:10:52
Writing library : libebml v1.3.0 + libmatroska v1.4.1

Video
ID : 1
Format : AVC
Format/Info : Advanced Video Codec
Format profile : High@L4.1
Format settings, CABAC : Yes
Format settings, ReFrames : 5 frames
Codec ID : V_MPEG4/ISO/AVC
Duration : 1h 26mn
Bit rate : 2 853 Kbps
Width : 1 280 pixels
Height : 720 pixels
Display aspect ratio : 16:9
Frame rate mode : Constant
Frame rate : 25.000 fps
Color space : YUV
Chroma subsampling : 4:2:0
Bit depth : 8 bits
Scan type : Progressive
Bits/(Pixel*Frame) : 0.124
Stream size : 1.72 GiB (71%)
Writing library : x264 core 140 r2377 1ca7bb9
Encoding settings : cabac=1 / ref=5 / deblock=1:0:0 / analyse=0x3:0x113 / me=umh / subme=8 / psy=1 / psy_rd=1.00:0.00 / mixed_ref=1 / me_range=16 / chroma_me=1 / trellis=1 / 8x8dct=1 / cqm=0 / deadzone=21,11 / fast_pskip=1 / chroma_qp_offset=-2 / threads=12 / lookahead_threads=2 / sliced_threads=0 / nr=0 / decimate=1 / interlaced=0 / bluray_compat=0 / constrained_intra=0 / bframes=3 / b_pyramid=2 / b_adapt=2 / b_bias=0 / direct=3 / weightb=1 / open_gop=0 / weightp=2 / keyint=250 / keyint_min=25 / scenecut=40 / intra_refresh=0 / rc_lookahead=50 / rc=crf / mbtree=1 / crf=18.0 / qcomp=0.60 / qpmin=0 / qpmax=69 / qpstep=4 / ip_ratio=1.40 / aq=1:1.00
Language : English
Default : Yes
Forced : No
Matrix coefficients : BT.709

Audio #1
ID : 2
Format : AC-3
Format/Info : Audio Coding 3
Mode extension : CM (complete main)
Format settings, Endianness : Big
Codec ID : A_AC3
Duration : 1h 26mn
Bit rate mode : Constant
Bit rate : 448 Kbps
Channel count : 6 channels
Channel positions : Front: L C R, Side: L R, LFE
Sampling rate : 48.0 KHz
Bit depth : 16 bits
Compression mode : Lossy
Stream size : 277 MiB (11%)
Title : Rus MVO Albion Studio 5:1 ac3
Default : Yes
Forced : No

Audio #2
ID : 3
Format : AC-3
Format/Info : Audio Coding 3
Mode extension : CM (complete main)
Format settings, Endianness : Big
Codec ID : A_AC3
Duration : 1h 26mn
Bit rate mode : Constant
Bit rate : 192 Kbps
Channel count : 2 channels
Channel positions : Front: L R
Sampling rate : 48.0 KHz
Bit depth : 16 bits
Compression mode : Lossy
Stream size : 119 MiB (5%)
Title : Rus MVO Albion Studio 2ch ac3
Default : No
Forced : No

Audio #3
ID : 4
Format : AC-3
Format/Info : Audio Coding 3
Mode extension : CM (complete main)
Format settings, Endianness : Big
Codec ID : A_AC3
Duration : 1h 26mn
Bit rate mode : Constant
Bit rate : 448 Kbps
Channel count : 6 channels
Channel positions : Front: L C R, Side: L R, LFE
Sampling rate : 48.0 KHz
Bit depth : 16 bits
Compression mode : Lossy
Stream size : 277 MiB (11%)
Title : Eng 5:1 ac3
Default : No
Forced : No

Text
ID : 5
Format : UTF-8
Codec ID : S_TEXT/UTF8
Codec ID/Info : UTF-8 Plain Text
Title : Albion Studio
Language : Russian
Default : No
Forced : No



Скачать Мунфлит.Moonfleet.(01x01-02.из.2).(Энди.де.Эммони).[2013.приключения.драма.HDTVRip].[720p].[MVO.(Albion-Studio)].torrent без регистрации
Золото ЗОЛОТАЯ РАЗДАЧА! СКАЧАННОЕ НЕ ЗАСЧИТЫВАЕТСЯ! Золото
Дата: Зарегистрирован   [ Тип: внутренний ] Как тут cкачать?
MAGNET ссылка
MAGNET ссылка


Скачать .torrent

13 KB

Статус: проверено DHT
Скачан: торрент - 108 раз, раздача полностью - 10 раз
Размер: 2,43 GB
Оценка:  - (Голосов: 0)
Поблагодарили: 0
Поделиться ссылкой на эту раздачу с друзьями:
В контактеFacebookОдноклассникиTwitterLivejournalМой МирLiveinternet
 

 
Показать сообщения:    


Вы не можете начинать темы
Вы не можете отвечать на сообщения
Вы не можете редактировать свои сообщения
Вы не можете удалять свои сообщения
Вы не можете голосовать в опросах
Вы не можете прикреплять файлы к сообщениям
Вы можете скачивать файлы