Loading...
Error

Скачать Мунфлит / Moonfleet (01x01-02 из 2) (Энди де Эммони) [2013, приключения, драма, HDTVRip] [MVO (Albion-Studio)] торрент без регистрации

 
Статистика раздачи
Размер:  975 MB   |    Скачан:  111 раз
Сидов:  1  [  0 KB/s  ]  
 
Автор Сообщение

МихаНЕзатор

[] 

Информация о фильме
Название: Мунфлит
Оригинальное название: Moonfleet
Год выпуска: 2013
Жанр: Приключения, драма
Выпущено: Великобритания, Sky 1 HD
Режиссер: Энди де Эммони

В ролях: Рэй Уинстон, Анайрин Барнард, Софи Куксон, Энтони Офоеджбу, Фил Дэниелс, Лоркан Кранич, Пиппа Хэйвуд, Ник Ли, Йен МакЭлхинни, Лесли Викерадж

О фильме: Фильм снят по одноименному роману Джона Мида Фолкнера. Англия, рыбацкое селение Мунфлит на морском побережье Дорсета в 1742 году, контробандисты, "красные мундиры" ... в центре повествования противостояние "крысиного короля" - главы контробандистов Эльзевира Блока всему существующему строю и, в часности, его олицетвореню - судье Махоуну. После убийства Махоуном Дэйви Блока, сына Эльзевира Блока, последний приючает, друга своего убитого сына, Джона Трэнчарда, который, в итоге, и заменяет ему сына. Мальчик же видит в своём спутнике только лучшие черты, и это пробуждает душу старого греховодника к новой жизни Полная приключений и захватывающего экшена история, история любви Джона Трэнчарда и Грэйс Махоун, не оставит равнодушным никого.



Выпущено: Великобритания, Sky 1 HD
Продолжительность: 01:26:24
Озвучивание: Любительское многоголосое (Albion Studio)

Файл
Кодек: XviD
Качество: HDTVRip
Видео: 1369 Кбит/с, 624x352, 25.000 кадр/сек
Аудио: Русский (AC3, 2 ch, 192 Кбит/с) / Любительский многоголосый (Albion Studio)

АНОНСЫ ПОПУЛЯРНЫХ РАЗДАЧ
Адам Шухарт - Джон Трэнчард
Ольга Никитина - Грэйс Махоун, тетя Джэйн
Михаил Бигыч - Эльзевир Блок, Черная борода, эпизоды
Влад Третьяк - Судья Махоун, Ювелир
Алексей Леонов - Рэтси, Пастор
Юрий Ковалев - Контробандист, эпизоды
Михаил Гапонов - Мич, Надзиратель
Денис Засимов - Гарри
Михаил Ананьев - Дэйви Блок, Офицер красных мундиров, эпизоды
Мария Аскольта - Молли
Константин Силаев - Офицер в тюрьме
Марина Ковалева - Тетя Лидия
Звукорежиссер: Михаил Бигыч

General
Complete name : E:Раздачи от Albion-StudioMoonflet 2013 (UK) HDTVRip Rus MVO Albion Studio.avi
Format : AVI
Format/Info : Audio Video Interleave
File size : 975 MiB
Duration : 1h 26mn
Overall bit rate : 1 573 Kbps
Writing application : Lavf52.93.0

Video
ID : 0
Format : xvid
Codec ID : xvid
Duration : 1h 26mn
Bit rate : 1 369 Kbps
Width : 624 pixels
Height : 352 pixels
Display aspect ratio : 16:9
Frame rate : 25.000 fps
Bits/(Pixel*Frame) : 0.249
Stream size : 848 MiB (87%)

Audio
ID : 1
Format : MPEG Audio
Format version : Version 1
Format profile : Layer 3
Mode : Joint stereo
Mode extension : MS Stereo
Codec ID : 55
Codec ID/Hint : MP3
Duration : 43mn 19s
Source duration : 1h 26mn
Bit rate mode : Constant
Bit rate : 192 Kbps
Channel count : 2 channels
Sampling rate : 48.0 KHz
Compression mode : Lossy
Stream size : 119 MiB (12%)
Alignment : Aligned on interleaves
Interleave, duration : 24 ms (0.60 video frame)



Скачать Мунфлит.Moonfleet.(01x01-02.из.2).(Энди.де.Эммони).[2013.приключения.драма.HDTVRip].[MVO.(Albion-Studio)].torrent без регистрации
Золото ЗОЛОТАЯ РАЗДАЧА! СКАЧАННОЕ НЕ ЗАСЧИТЫВАЕТСЯ! Золото
Дата: Зарегистрирован   [ Тип: внутренний ] Как тут cкачать?
MAGNET ссылка
MAGNET ссылка


Скачать .torrent

20 KB

Статус: проверено DHT
Скачан: торрент - 111 раз, раздача полностью - 25 раз
Размер: 975 MB
Оценка:  - (Голосов: 0)
Поблагодарили: 1
Поделиться ссылкой на эту раздачу с друзьями:
В контактеFacebookОдноклассникиTwitterLivejournalМой МирLiveinternet
 

 
Показать сообщения:    


Вы не можете начинать темы
Вы не можете отвечать на сообщения
Вы не можете редактировать свои сообщения
Вы не можете удалять свои сообщения
Вы не можете голосовать в опросах
Вы не можете прикреплять файлы к сообщениям
Вы можете скачивать файлы