Loading...
Error

Скачать Клетка для пташек / The Birdcage (Майк Николс / Mike Nichols) [1996, комедия, BDRip-AVC] [DUB] (Варус Видео) + [DVO] (Союз Видео) торрент без регистрации

 
Статистика раздачи
Размер:  1,05 GB   |    Скачан:  99 раз
Сидов:  1  [  0 KB/s  ]  
 
Автор Сообщение

leon030982

[] 

Клетка для пташек / The Birdcage


Год выпуска: 1996
Страна: США
Жанр: комедия
Продолжительность: 01:59:13
Перевод #1: Профессиональный (дублированный)[Варус Видео]
Перевод #2: Профессиональный (двухголосный, закадровый)[Союз Видео]
Cубтитры: русские, английские (отключаемые)
Оригинальная дорожка: английский

Режиссер: Майк Николс / Mike Nichols

В ролях: Робин Уильямс, Джин Хэкмен, Натан Лейн, Дайэнн Уист, Дэн Футтерман, Калиста Флокхарт, Хэнк Азария, Кристин Барански, Том МакГоуэн, Грант Хеслов

Описание: Арман и Альберт живут жизнью, с их точки зрения, идеальной. Они с успехом содержат кичевый ночной клуб в самом центре Майами. Но их уютное спокойствие внезапно сотрясает возвращение сына Армана, который собирается жениться на дочери ультраконсервативного сенатора Кили. Мало того — сенатор с женой — уже в пути, чтобы поспеть к ужину, за которым и должно состояться их знакомство с мистером и миссис Идеальная Семья. Смогут ли Арман и Альберт обвести их вокруг пальца? Миленькое представление ожидает застойного консерватора. Чтобы замаскироваться, ему придется примерить шифоновый наряд!



Качество видео: BDRip-AVC
Формат видео: MKV
Видео кодек: x.264
Аудио кодек: AC3, AAC
Видео: 852x464 (1.85:1), 23.976 fps, High@L3.1 ~892 kbps avg, 0.27 bit/pixel
Аудио #1: 48 kHz, AC3 Dolby Digital, 2/0 (L,R) ch, ~192 kbps [DUB] (Варус Видео)
Аудио #2: 48 kHz, AC3 Dolby Digital, 2/0 (L,R) ch, ~192 kbps [DVO] (Союз Видео)
Аудио #3: 48 kHz, AAC Dolby Digital, 2/0 (L,R) ch, ~128 kbps [ENG]
E:\The Birdcage.1996..BDRip-AVC.[DUB]+[DVO]+Sub(Rus,Eng)+Orig.mkv
General
Unique ID : 205503864177336080849711864004106696733 (0x9A9A9AC5243F0F60BFD61D3BB1CEB81D)
Complete name : E:\The Birdcage.1996..BDRip-AVC.[DUB]+[DVO]+Sub(Rus,Eng)+Orig.mkv
Format : Matroska
Format version : Version 4 / Version 2
File size : 1.05 GiB
Duration : 1h 59mn
Overall bit rate : 1 266 Kbps
Encoded date : UTC 2014-02-04 12:47:28
Writing application : mkvmerge v6.1.0 ('Old Devil') built on Mar 4 2013 09:10:42
Writing library : libebml v1.3.0 + libmatroska v1.4.0
Video #1
ID : 1
Format : AVC
Format/Info : Advanced Video Codec
Format profile : High@L3.1
Format settings, CABAC : Yes
Format settings, ReFrames : 5 frames
Codec ID : V_MPEG4/ISO/AVC
Duration : 1h 59mn
Width : 852 pixels
Height : 464 pixels
Display aspect ratio : 1.85:1
Frame rate mode : Constant
Frame rate : 23.976 fps
Color space : YUV
Chroma subsampling : 4:2:0
Bit depth : 8 bits
Scan type : Progressive
Writing library : x264 core 129 r2245 bc13772
Encoding settings : cabac=1 / ref=5 / deblock=1:0:0 / analyse=0x3:0x113 / me=umh / subme=9 / psy=1 / psy_rd=1.00:0.00 / mixed_ref=1 / me_range=16 / chroma_me=1 / trellis=1 / 8x8dct=1 / cqm=0 / deadzone=21,11 / fast_pskip=0 / chroma_qp_offset=-2 / threads=12 / lookahead_threads=2 / sliced_threads=0 / nr=0 / decimate=1 / interlaced=0 / bluray_compat=0 / constrained_intra=0 / bframes=8 / b_pyramid=2 / b_adapt=2 / b_bias=0 / direct=3 / weightb=1 / open_gop=0 / weightp=2 / keyint=250 / keyint_min=23 / scenecut=40 / intra_refresh=0 / rc_lookahead=50 / rc=crf / mbtree=1 / crf=23.0 / qcomp=0.60 / qpmin=0 / qpmax=69 / qpstep=4 / vbv_maxrate=10000 / vbv_bufsize=10000 / crf_max=0.0 / nal_hrd=none / ip_ratio=1.40 / aq=1:1.00
Language : English
Default : Yes
Forced : No
Audio #2
ID : 2
Format : AC-3
Format/Info : Audio Coding 3
Mode extension : CM (complete main)
Format settings, Endianness : Big
Codec ID : A_AC3
Duration : 1h 59mn
Bit rate mode : Constant
Bit rate : 192 Kbps
Channel(s) : 2 channels
Channel positions : Front: L R
Sampling rate : 48.0 KHz
Bit depth : 16 bits
Compression mode : Lossy
Delay relative to video : 3s 0ms
Stream size : 164 MiB (15%)
Title : DUB [VARUS]
Language : Russian
Default : Yes
Forced : Yes
Audio #3
ID : 3
Format : AC-3
Format/Info : Audio Coding 3
Mode extension : CM (complete main)
Format settings, Endianness : Big
Codec ID : A_AC3
Duration : 1h 59mn
Bit rate mode : Constant
Bit rate : 192 Kbps
Channel(s) : 2 channels
Channel positions : Front: L R
Sampling rate : 48.0 KHz
Bit depth : 16 bits
Compression mode : Lossy
Delay relative to video : 3s 0ms
Stream size : 164 MiB (15%)
Title : DVO [SOYUZ VIDEO]
Language : Russian
Default : No
Forced : No
Audio #7
ID : 7
Format : AAC
Format/Info : Advanced Audio Codec
Format profile : LC
Codec ID : A_AAC
Duration : 1h 59mn
Channel(s) : 2 channels
Channel positions : Front: L R
Sampling rate : 48.0 KHz
Compression mode : Lossy
Title : ENG
Language : English
Default : No
Forced : No
Text #4
ID : 4
Format : UTF-8
Codec ID : S_TEXT/UTF8
Codec ID/Info : UTF-8 Plain Text
Title : Sub (RUS)
Language : Russian
Default : No
Forced : No
Text #5
ID : 5
Format : UTF-8
Codec ID : S_TEXT/UTF8
Codec ID/Info : UTF-8 Plain Text
Title : SDH
Language : English
Default : No
Forced : No
Text #6
ID : 6
Format : UTF-8
Codec ID : S_TEXT/UTF8
Codec ID/Info : UTF-8 Plain Text
Language : English
Default : No
Forced : No



Скачать Клетка.для.пташек.The.Birdcage.(Майк.Николс.Mike.Nichols).[1996.комедия.BDRip-AVC].[DUB].(Варус.Видео).+.[DVO].(Союз.Видео).torrent без регистрации
Золото ЗОЛОТАЯ РАЗДАЧА! СКАЧАННОЕ НЕ ЗАСЧИТЫВАЕТСЯ! Золото
Дата: Зарегистрирован   [ Тип: внутренний ] Как тут cкачать?
MAGNET ссылка
MAGNET ссылка


Скачать .torrent

11 KB

Статус: проверено DHT
Скачан: торрент - 99 раз, раздача полностью - 29 раз
Размер: 1,05 GB
Оценка:  - (Голосов: 0)
Поблагодарили: 2
Поделиться ссылкой на эту раздачу с друзьями:
В контактеFacebookОдноклассникиTwitterLivejournalМой МирLiveinternet
 

 
Показать сообщения:    


Вы не можете начинать темы
Вы не можете отвечать на сообщения
Вы не можете редактировать свои сообщения
Вы не можете удалять свои сообщения
Вы не можете голосовать в опросах
Вы не можете прикреплять файлы к сообщениям
Вы можете скачивать файлы