Loading...
Error

Скачать Ущерб / Damage (Луи Маль) [1992, драма, мелодрама, BDRip-AVC] [MVO] [Лицензия]+[Sub] торрент без регистрации

 
Статистика раздачи
Размер:  1,73 GB   |    Скачан:  126 раз
Сидов:  1  [  0 KB/s  ]  
 
Автор Сообщение

Marsianka

[] 

Информация о фильме
Год выпуска: 1992
Жанр: драма, мелодрама
Режиссер: Луи Маль
В ролях: Джереми Айронс, Жюльет Бинош, Миранда Ричардсон, Руперт Грейвз, Иэн Бэннен, Петер Стормаре, Джемма Кларк, Джулиан Феллоуз, Лесли Карон, Тони Дойл

О фильме:
Стивен Флеминг и Анна Бартон совершено разные на первый взгляд люди. Он пожилой высокопоставленный дипломат, любящий семьянин и отец. Она молодая скромная предпринимательница, ведущая замкнутый образ жизни. Тем не менее они полюбили друг друга с первого взгляда. Не в силах сопротивляться нахлынувшим чувствам, Стивен полностью отдается всепоглощающей страсти, несмотря на семью, положение в обществе и тот немаловажный факт, что Анна является невестой его же собственного сына.



Выпущено: Великобритания, Франция, Nouvelles Editions de Films (NEF), Skreba Films, StudioCanal
Продолжительность: 01:51:02
Перевод: Профессиональный многоголосый закадровый (Лицензия)
Субтитры: Русские

Файл
Контейнер: .mkv
Качество: BDRip-AVC
Видео: MPEG-4 AVC, 1616 Кбит/с, 1072x576, 23.976 Кадр/с
Аудио: Русский (AC3, 6 ch, 384 Кбит/c, 48,0 КГц), английский (AC3, 2 ch, 256 Кбит/c, 48,0 КГц)

General
Unique ID : 246953675147339789513371756489141046574 (0xB9C98C3B9715EF1C8B64834E63B6CD2E)
Complete name : D:Usherb.(1992).BDRip-AVC[-=DoMiNo=-].mkv
Format : Matroska
Format version : Version 4 / Version 2
File size : 1.73 GiB
Duration : 1h 51mn
Overall bit rate : 2 233 Kbps
Movie name : FiREBiT.ORG
Encoded date : UTC 2014-02-04 17:36:14
Writing application : mkvmerge v6.7.0 ('Back to the Ground') 64bit built on Jan 8 2014 15:10:52
Writing library : libebml v1.3.0 + libmatroska v1.4.1

Video
ID : 1
Format : AVC
Format/Info : Advanced Video Codec
Format profile : High@L4.1
Format settings, CABAC : Yes
Format settings, ReFrames : 12 frames
Codec ID : V_MPEG4/ISO/AVC
Duration : 1h 51mn
Bit rate : 1 616 Kbps
Width : 1 072 pixels
Height : 576 pixels
Display aspect ratio : 1.85:1
Frame rate mode : Constant
Frame rate : 23.976 fps
Color space : YUV
Chroma subsampling : 4:2:0
Bit depth : 8 bits
Scan type : Progressive
Bits/(Pixel*Frame) : 0.109
Stream size : 1.20 GiB (69%)
Writing library : x264 core 125 r2208 d9d2288
Encoding settings : cabac=1 / ref=12 / deblock=1:-2:-1 / analyse=0x3:0x133 / me=umh / subme=9 / psy=1 / psy_rd=1.01:0.15 / mixed_ref=1 / me_range=16 / chroma_me=1 / trellis=1 / 8x8dct=1 / cqm=0 / deadzone=21,11 / fast_pskip=0 / chroma_qp_offset=-6 / threads=6 / lookahead_threads=1 / sliced_threads=0 / slices=4 / nr=0 / decimate=1 / interlaced=fake / bluray_compat=0 / constrained_intra=0 / bframes=8 / b_pyramid=2 / b_adapt=2 / b_bias=0 / direct=2 / weightb=1 / open_gop=1 / weightp=2 / keyint=250 / keyint_min=23 / scenecut=40 / intra_refresh=0 / rc_lookahead=60 / rc=abr / mbtree=1 / bitrate=1616 / ratetol=1.0 / qcomp=0.60 / qpmin=2 / qpmax=69 / qpstep=4 / ip_ratio=1.40 / aq=1:1.00
Default : Yes
Forced : No
Color primaries : Generic film

Audio #1
ID : 2
Format : AC-3
Format/Info : Audio Coding 3
Mode extension : CM (complete main)
Format settings, Endianness : Big
Codec ID : A_AC3
Duration : 1h 51mn
Bit rate mode : Constant
Bit rate : 384 Kbps
Channel(s) : 6 channels
Channel positions : Front: L C R, Side: L R, LFE
Sampling rate : 48.0 KHz
Bit depth : 16 bits
Compression mode : Lossy
Stream size : 305 MiB (17%)
Title : Русский (AC3, 6 ch, 384 Кбит/c, 48,0 КГц)
Language : Russian
Default : Yes
Forced : Yes

Audio #2
ID : 3
Format : AC-3
Format/Info : Audio Coding 3
Mode extension : CM (complete main)
Format settings, Endianness : Big
Codec ID : A_AC3
Duration : 1h 51mn
Bit rate mode : Constant
Bit rate : 256 Kbps
Channel(s) : 2 channels
Channel positions : Front: L R
Sampling rate : 48.0 KHz
Bit depth : 16 bits
Compression mode : Lossy
Stream size : 203 MiB (11%)
Title : английский (AC3, 2 ch, 256 Кбит/c, 48,0 КГц
Language : English
Default : No
Forced : No

Text
ID : 4
Format : UTF-8
Codec ID : S_TEXT/UTF8
Codec ID/Info : UTF-8 Plain Text
Title : http://firebit.org
Language : Russian
Default : No
Forced : No

Menu
00:00:00.000 : en:00:00:00.000
00:08:36.349 : en:00:08:36.349
00:20:18.759 : en:00:20:18.759
00:28:02.389 : en:00:28:02.389
00:38:37.232 : en:00:38:37.232
00:53:34.253 : en:00:53:34.253
01:05:21.042 : en:01:05:21.042
01:15:33.988 : en:01:15:33.988
01:26:24.179 : en:01:26:24.179
01:34:49.475 : en:01:34:49.475
01:42:04.577 : en:01:42:04.577



Скачать Ущерб.Damage.(Луи.Маль).[1992.драма.мелодрама.BDRip-AVC].[MVO].[Лицензия]+[Sub].torrent без регистрации
Золото ЗОЛОТАЯ РАЗДАЧА! СКАЧАННОЕ НЕ ЗАСЧИТЫВАЕТСЯ! Золото
Дата: Зарегистрирован   [ Тип: внутренний ] Как тут cкачать?
MAGNET ссылка
MAGNET ссылка


Скачать .torrent

18 KB

Статус: проверено DHT
Скачан: торрент - 126 раз, раздача полностью - 7 раз
Размер: 1,73 GB
Оценка:  - (Голосов: 0)
Поблагодарили: 1
Поделиться ссылкой на эту раздачу с друзьями:
В контактеFacebookОдноклассникиTwitterLivejournalМой МирLiveinternet
 

 
Показать сообщения:    


Вы не можете начинать темы
Вы не можете отвечать на сообщения
Вы не можете редактировать свои сообщения
Вы не можете удалять свои сообщения
Вы не можете голосовать в опросах
Вы не можете прикреплять файлы к сообщениям
Вы можете скачивать файлы