Loading...
Error

Скачать Точка обстрела / Vantage Point (Пит Трэвис) [2008, боевик, триллер, драма, криминал, BDRip-AVC] [Dub] торрент без регистрации

 
Статистика раздачи
Размер:  746 MB   |    Скачан:  131 раз
Сидов:  1  [  0 KB/s  ]  
 
Автор Сообщение

Marsianka

[] 

Точка обстрела / Vantage Point (2008) BDRip-AVC

Информация о фильме
Название: Точка обстрела
Оригинальное название: Vantage Point
Год выхода: 2008
Жанр: боевик, триллер, драма, криминал
Режиссер: Пит Трэвис

В ролях: Дэннис Куэйд, Мэттью Фокс, Форест Уитакер, Саид Тагмауи, Айелет Зурер, Брюс МакГилл, Эдгар Рамирес, Зои Салдана, Сигурни Уивер, Уильям Хёрт, Эдуардо Норьега, Хосе Карлос Родригез, Джеймс ЛеГро, Ричард Т. Джонс, Холт МакКэллани, Леонардо Нам...

О фильме: Во время публичного выступления на антитеррористическом форуме в Саламанке, Испания от рук экстремистов погибает президент США так, по-крайней мере, событие выглядит на первый взгляд. Вслед за этим мощный взрыв убивает сотни людей. Случившееся показано с разных точек зрения: сотрудников спецслужб, случайных прохожих, террориста-фанатика

Только проследив за происходящим через призму восприятия каждого из этих людей, можно приблизиться к пониманию истиной сути событий, связанных с покушением.



Страна: США
Продолжительность: 01:30:05
Перевод: Дублированный

Файл
Кодек: x.264
Качество: BDRip-AVC
Видео: 912x384 (2,40:1), 23,976 fps, 1028 kbps, 0.122 bit/pixel
Звук: 48 kHz, AC3 Dolby Digital, 2 ch, ~128.00 kbps

&
Общее
Уникальный идентификатор : 224209543903126980622459832149924247691 (0xA8AD2FFC33A786FCB8B321B3B801F88B)
Полное имя : D:Vantage Point.2008.BDRip-AVC.mkv
Формат : Matroska
Версия формата : Version 4 / Version 2
Размер файла : 746 Мбайт
Продолжительность : 1 ч. 30 м.
Общий поток : 1157 Кбит/сек
Название фильма : Точка обстрела / Vantage Point (2008) BDRip-AVC rip by Rulya74
Дата кодирования : UTC 2014-02-05 13:50:27
Программа кодирования : mkvmerge v6.6.0 ('The Edge Of The In Between') built on Dec 1 2013 17:55:00
Библиотека кодирования : libebml v1.3.0 + libmatroska v1.4.1

Видео
Идентификатор : 1
Формат : AVC
Формат/Информация : Advanced Video Codec
Профиль формата : High@L4.1
Параметр CABAC формата : Да
Параметр ReFrames формата : 9 кадров
Идентификатор кодека : V_MPEG4/ISO/AVC
Продолжительность : 1 ч. 30 м.
Битрейт : 1028 Кбит/сек
Ширина : 912 пикселей
Высота : 384 пикселя
Соотношение сторон : 2,40:1
Режим частоты кадров : Постоянный
Частота кадров : 23,976 кадра/сек
Цветовое пространство : YUV
Субдискретизация насыщенности : 4:2:0
Битовая глубина : 8 бит
Тип развёртки : Прогрессивная
Бит/(Пиксели*Кадры) : 0.122
Размер потока : 648 Мбайт (87%)
Библиотека кодирования : x264 core 130 r2273 b3065e6
Настройки программы : cabac=1 / ref=9 / deblock=1:-1:-1 / analyse=0x3:0x2 / me=umh / subme=11 / psy=1 / psy_rd=1.00:0.00 / mixed_ref=1 / me_range=48 / chroma_me=1 / trellis=2 / 8x8dct=1 / cqm=0 / deadzone=21,11 / fast_pskip=0 / chroma_qp_offset=-2 / threads=8 / lookahead_threads=1 / sliced_threads=0 / nr=0 / decimate=1 / interlaced=0 / bluray_compat=0 / constrained_intra=0 / bframes=6 / b_pyramid=2 / b_adapt=2 / b_bias=0 / direct=3 / weightb=1 / open_gop=0 / weightp=2 / keyint=250 / keyint_min=25 / scenecut=40 / intra_refresh=0 / rc_lookahead=50 / rc=2pass / mbtree=1 / bitrate=1028 / ratetol=1.0 / qcomp=0.60 / qpmin=10 / qpmax=69 / qpstep=4 / cplxblur=20.0 / qblur=0.5 / ip_ratio=1.40 / aq=1:1.00
Default : Да
Forced : Нет

Аудио
Идентификатор : 2
Формат : AC-3
Формат/Информация : Audio Coding 3
Расширение режима : CM (complete main)
Параметр Endianness формата : Big
Идентификатор кодека : A_AC3
Продолжительность : 1 ч. 30 м.
Вид битрейта : Постоянный
Битрейт : 128 Кбит/сек
Каналы : 2 канала
Расположение каналов : Front: L R
Частота : 48,0 КГц
Битовая глубина : 16 бит
Метод сжатия : С потерями
Размер потока : 82,5 Мбайт (11%)
Заголовок : Дублированный
Язык : Russian
Default : Да
Forced : Нет



Скачать Точка.обстрела.Vantage.Point.(Пит.Трэвис).[2008.боевик.триллер.драма.криминал.BDRip-AVC].[Dub].torrent без регистрации
Золото ЗОЛОТАЯ РАЗДАЧА! СКАЧАННОЕ НЕ ЗАСЧИТЫВАЕТСЯ! Золото
Дата: Зарегистрирован   [ Тип: внутренний ] Как тут cкачать?
MAGNET ссылка
MAGNET ссылка


Скачать .torrent

15 KB

Статус: проверено DHT
Скачан: торрент - 131 раз, раздача полностью - 14 раз
Размер: 746 MB
Оценка:  - (Голосов: 0)
Поблагодарили: 1
Поделиться ссылкой на эту раздачу с друзьями:
В контактеFacebookОдноклассникиTwitterLivejournalМой МирLiveinternet
 

 
Показать сообщения:    


Вы не можете начинать темы
Вы не можете отвечать на сообщения
Вы не можете редактировать свои сообщения
Вы не можете удалять свои сообщения
Вы не можете голосовать в опросах
Вы не можете прикреплять файлы к сообщениям
Вы можете скачивать файлы