Loading...
Error

Скачать У истоков жизни / Nara livet / So Close to Life (Ингмар Бергман) [1958, драма, BDRip-AVC] [VO]+[Оригинал]+[Sub] торрент без регистрации

 
Статистика раздачи
Размер:  2,15 GB   |    Скачан:  111 раз
Сидов:  1  [  0 KB/s  ]  
 
Автор Сообщение

Marsianka

[] 

Информация о фильме
Название: У истоков жизни
Оригинальное название: Nara livet (So Close to Life)
Год выхода: 1958
Жанр: драма
Режиссер: Ингмар Бергман
В ролях: Ева Дальбек, Ингрид Тулин, Биби Андерссон, Барбро Хиорт аф ОрнЭс, Эрланд Юсефсон, Макс фон Сюдов, Гуннар Шеберг, Анн-Мари Гюлленспец, Инга Ландгре, Кристина Адольфсон, Бенгт Бломгрен, Моника Экберг, Инга Гилль, Гун Йонссон, Сисси Кайзер, Маргарета Крок, Ларс Линд, Гуннар Нилсен
О фильме:Киноновелла, небогатая событиями, но насыщенная неброским внутренним драматизмом, действие которой происходит в родильном доме. Лента рассказывает о трех женщинах, две из которых очень хотят родить ребенка, третья напротив, желала бы от него избавиться, да поздно. Желания каждой из героинь оказываются невыполнимы



Страна: Швеция
Студия: Inter-American Productions, Jerome Balsam Films, Nordisk Tonefilm
Продолжительность: 01:22:02
Перевод: Профессиональный одноголосый + оригинал

Файл
Кодек: MPEG-4 AVC
Качество: BDRip-AVC
Видео: MPEG-4 AVC, 3300 Кбит/с, 764x576, 23.976 кадр/с
Аудио #1: Русский (AC3, 2 ch, 192 Кбит/с) / Профессиональный одноголосый (ГТРК "Культура")
Аудио #2: Шведский (AC3, 2 ch, 256 Кбит/с)
Субтитры: Английские
Семпл
Общее
Уникальный идентификатор : 215006232504007794380372561984260805594 (0xA1C0B1B33867DB4D9A662CE5B45E13DA)
Полное имя : D:Мои РипыU.istokov.zhizni.1958.x264.BDRip.AVC.mkv
Формат : Matroska
Версия формата : Version 4 / Version 2
Размер файла : 2,15 Гбайт
Продолжительность : 1 ч. 22 м.
Общий поток : 3750 Кбит/сек
Название фильма : = MediaClub = rip by krakatuq
Дата кодирования : UTC 2014-02-04 18:07:43
Программа кодирования : mkvmerge v6.6.0 ('The Edge Of The In Between') built on Dec 1 2013 17:55:00
Библиотека кодирования : libebml v1.3.0 + libmatroska v1.4.1

Видео
Идентификатор : 1
Формат : AVC
Формат/Информация : Advanced Video Codec
Профиль формата : High@L4.1
Параметр CABAC формата : Да
Параметр ReFrames формата : 9 кадров
Идентификатор кодека : V_MPEG4/ISO/AVC
Продолжительность : 1 ч. 22 м.
Битрейт : 3300 Кбит/сек
Ширина : 764 пикселя
Высота : 576 пикселей
Соотношение сторон : 4:3
Режим частоты кадров : Постоянный
Частота кадров : 23,976 кадра/сек
Цветовое пространство : YUV
Субдискретизация насыщенности : 4:2:0
Битовая глубина : 8 бит
Тип развёртки : Прогрессивная
Бит/(Пиксели*Кадры) : 0.313
Размер потока : 1,85 Гбайт (86%)
Заголовок : U.istokov.zhizni.1958.x264.BDRip.AVC
Библиотека кодирования : x264 core 130 r2273 b3065e6
Настройки программы : cabac=1 / ref=9 / deblock=1:-3:-3 / analyse=0x3:0x133 / me=umh / subme=11 / psy=1 / psy_rd=1.00:0.20 / mixed_ref=1 / me_range=32 / chroma_me=1 / trellis=2 / 8x8dct=1 / cqm=0 / deadzone=21,11 / fast_pskip=0 / chroma_qp_offset=-3 / threads=6 / lookahead_threads=1 / sliced_threads=0 / nr=0 / decimate=0 / interlaced=0 / bluray_compat=0 / constrained_intra=0 / bframes=8 / b_pyramid=2 / b_adapt=2 / b_bias=0 / direct=3 / weightb=1 / open_gop=0 / weightp=2 / keyint=240 / keyint_min=23 / scenecut=40 / intra_refresh=0 / rc=2pass / mbtree=0 / bitrate=3300 / ratetol=1.0 / qcomp=0.60 / qpmin=0 / qpmax=69 / qpstep=4 / cplxblur=20.0 / qblur=0.5 / ip_ratio=1.40 / pb_ratio=1.30 / aq=1:1.00
Язык : Swedish
Default : Да
Forced : Нет

Аудио #1
Идентификатор : 2
Формат : AC-3
Формат/Информация : Audio Coding 3
Расширение режима : CM (complete main)
Параметр Endianness формата : Big
Идентификатор кодека : A_AC3
Продолжительность : 1 ч. 22 м.
Вид битрейта : Постоянный
Битрейт : 192 Кбит/сек
Каналы : 2 канала
Расположение каналов : Front: L R
Частота : 48,0 КГц
Битовая глубина : 16 бит
Метод сжатия : С потерями
Размер потока : 113 Мбайт (5%)
Заголовок : TRACK_01_VO_RUS_Kultura
Язык : Russian
Default : Да
Forced : Да

Аудио #2
Идентификатор : 3
Формат : AC-3
Формат/Информация : Audio Coding 3
Расширение режима : CM (complete main)
Параметр Endianness формата : Big
Идентификатор кодека : A_AC3
Продолжительность : 1 ч. 22 м.
Вид битрейта : Постоянный
Битрейт : 256 Кбит/сек
Каналы : 2 канала
Расположение каналов : Front: L R
Частота : 48,0 КГц
Битовая глубина : 16 бит
Метод сжатия : С потерями
Размер потока : 150 Мбайт (7%)
Заголовок : TRACK_02_ORIGINAL_SWE
Язык : Swedish
Default : Нет
Forced : Нет

Текст
Идентификатор : 4
Формат : UTF-8
Идентификатор кодека : S_TEXT/UTF8
Идентификатор кодека/Информация : UTF-8 Plain Text
Заголовок : TEXT_01_SUB_ENG
Язык : English
Default : Нет
Forced : Нет

Меню
00:00:00.000 : en:00:00:00.000
00:06:31.933 : en:00:06:31.933
00:14:00.089 : en:00:14:00.089
00:23:01.797 : en:00:23:01.797
00:28:21.199 : en:00:28:21.199
00:34:32.111 : en:00:34:32.111
00:42:07.942 : en:00:42:07.942
00:48:54.348 : en:00:48:54.348
00:57:29.654 : en:00:57:29.654
01:04:23.985 : en:01:04:23.985
01:11:24.488 : en:01:11:24.488
01:15:45.374 : en:01:15:45.374
x264 [info]: frame I:637PP Avg QP:14.61PPsize: 73900
x264 [info]: frame P:25304 Avg QP:17.14PPsize: 33377
x264 [info]: frame B:92092 Avg QP:18.76PPsize: 12368
Сохранены оригинальные чаптеры как на Blu-ray.

За помощь в подготовке релиза спасибо Константину - Painter и Виталию - neni

За постер спасибо Инне - cookies от Media-Art-Club

За исходник спасибо xamster by HDClub

xamster писал(а):
Версия на Blu-ray короче DVD версии, что гуляет в сети. По сравнению с ней вырезано примерно полторы минуты в районе 20-й минуты фильма и еще чуть больше минуты в районе 62-й минуты фильма, разумеется цифры даны для 23.976 fps и "62-я минута" с учетом вырезанного ранее.
Релиз от:

Автор рипа:



Скачать У.истоков.жизни.Nara.livet.So.Close.to.Life.(Ингмар.Бергман).[1958.драма.BDRip-AVC].[VO]+[Оригинал]+[Sub].torrent без регистрации
Золото ЗОЛОТАЯ РАЗДАЧА! СКАЧАННОЕ НЕ ЗАСЧИТЫВАЕТСЯ! Золото
Дата: Зарегистрирован   [ Тип: внутренний ] Как тут cкачать?
MAGNET ссылка
MAGNET ссылка


Скачать .torrent

11 KB

Статус: проверено DHT
Скачан: торрент - 111 раз, раздача полностью - 5 раз
Размер: 2,15 GB
Оценка:  - (Голосов: 0)
Поблагодарили: 1
Поделиться ссылкой на эту раздачу с друзьями:
В контактеFacebookОдноклассникиTwitterLivejournalМой МирLiveinternet
 

 
Показать сообщения:    


Вы не можете начинать темы
Вы не можете отвечать на сообщения
Вы не можете редактировать свои сообщения
Вы не можете удалять свои сообщения
Вы не можете голосовать в опросах
Вы не можете прикреплять файлы к сообщениям
Вы можете скачивать файлы