Loading...
Error

Скачать Рыбка по имени Ванда / A Fish Called Wanda (Чарльз Крайтон, Джон Клиз) [1988, комедия, криминал, BDRip-AVC] [MVO]x2+[DVO]+[AVO]x3+[VO]+[Sub]x2 торрент без регистрации

 
Статистика раздачи
Размер:  3,54 GB   |    Скачан:  107 раз
Сидов:  1  [  0 KB/s  ]  
 
Автор Сообщение

Marsianka

[] 

Рыбка по имени Ванда
| A Fish Called Wanda |


Информация о фильме
Название: Рыбка по имени Ванда
Оригинальное название: A Fish Called Wanda
Год выхода: 1988
Жанр: комедия, криминал
Режиссер: Чарльз Крайтон, Джон Клиз
В ролях: Джон Клиз, Джейми Ли Кертис, Кевин Клайн, Майкл Пэлин, Мария Аиткен, Том Джорджсон, Патриция Хейс, Джеффри Палмер, Синтия Клиз, Марк Элвис

О фильме:
После ограбления, заполучив бриллиантов на 20 миллионов долларов, компания преступников раскалывается. Не в жаргонном смысле слова, а в прямом: Джордж Томасон попадает за решетку, а его подельники Ванда, Кен и Отто остаются на свободе. Ванда, действуя заодно со своим тайным любовником Отто, сама же и подставляет своего «явного» любовника Джорджа. Но тот до приезда полиции успевает перепрятать бриллианты. И теперь единственный шанс Ванды и Отто узнать, где драгоценности, это адвокат Арчи Лич, с которым Джордж может поделиться важной информацией. Ванда приступает к обольщению Арчи Лича



Страна: США, Великобритания
Студия: Metro-Goldwyn-Mayer Pictures, Inc.
Продолжительность: 01:47:55
Перевод: Профессиональный (многоголосый закадровый), профессиональный (двухголосый закадровый), авторский (одноголосый закадровый), любительский (одноголосый закадровый)

Файл
Кодек: h264
Качество: BDRip-AVC
Видео: 2588 Кбит/с, 1024x550, 23.976 кадр/с
1: Русский (AC3, 6 ch, 384 Кбит/с) Профессиональный многоголосый [Позитив]
2: Русский (АС3, 6 ch, 384 Кбит/с) Авторский одноголосый [Алексей Михалев]
3: Английский (АС3, 6 ch, 384 Кбит/с)
Отдельно:
4: Русский (AC3, 2 ch, 192 Кбит/с) Профессиональный многоголосый [Варус]
5: Русский (AC3, 2 ch, 192 Кбит/с) Профессиональный двухголосый [Blu-Ray CEE]
6: Русский (AC3, 2 ch, 192 Кбит/с) Авторский одноголосый [Василий Горчаков]
7: Русский (AC3, 2 ch, 192 Кбит/с) Авторский одноголосый [Владимир Сонькин]
8: Русский (AC3, 2 ch, 192 Кбит/с) Любительский одноголосый

Субтитры: Русские, английские [SDH]

---------------------------------------------------------------------------
x264 [info]: frame I:1010 Avg QP:17.74 size: 80723
x264 [info]: frame P:33237 Avg QP:19.65 size: 29633
x264 [info]: frame B:121012 Avg QP:20.37 size: 8493
---------------------------------------------------------------------------

Полное имя : A.Fish.Called.Wanda.1988.x264.BDRip-AVC.0ptimus.mkv
Формат : Matroska
Версия формата : Version 2
Размер файла : 2,82 Гбайт
Продолжительность : 1 ч. 47 м.
Общий поток : 3742 Кбит/сек
Название фильма : Рыбка по имени Ванда / A Fish Called Wanda [1988] -=BDRip (AVC) by 0ptimus=-
Дата кодирования : UTC 2014-02-07 05:32:15
Программа кодирования : mkvmerge v6.6.0 ('The Edge Of The In Between') built on Dec 1 2013 17:55:00
Библиотека кодирования : libebml v1.3.0 + libmatroska v1.4.1

Видео
Идентификатор : 1
Формат : AVC
Формат/Информация : Advanced Video Codec
Профиль формата : High@L4.1
Параметр CABAC формата : Да
Параметр ReFrames формата : 10 кадров
Идентификатор кодека : V_MPEG4/ISO/AVC
Продолжительность : 1 ч. 47 м.
Битрейт : 2588 Кбит/сек
Ширина : 1024 пикселя
Высота : 550 пикселей
Соотношение сторон : 1,85:1
Режим частоты кадров : Постоянный
Частота кадров : 23,976 кадра/сек
Цветовое пространство : YUV
Субдискретизация насыщенности : 4:2:0
Битовая глубина : 8 бит
Тип развёртки : Прогрессивная
Бит/(Пиксели*Кадры) : 0.192
Размер потока : 1,90 Гбайт (67%)
Заголовок : Rip by 0ptimus
Библиотека кодирования : x264 core 125 r2208 d9d2288
Настройки программы : cabac=1 / ref=10 / deblock=1:-2:-1 / analyse=0x3:0x113 / me=umh / subme=11 / psy=1 / psy_rd=1.00:0.20 / mixed_ref=1 / me_range=32 / chroma_me=1 / trellis=2 / 8x8dct=1 / cqm=0 / deadzone=21,11 / fast_pskip=0 / chroma_qp_offset=-3 / threads=4 / lookahead_threads=1 / sliced_threads=0 / nr=0 / decimate=0 / interlaced=0 / bluray_compat=0 / constrained_intra=0 / bframes=12 / b_pyramid=2 / b_adapt=2 / b_bias=0 / direct=3 / weightb=1 / open_gop=0 / weightp=2 / keyint=240 / keyint_min=23 / scenecut=40 / intra_refresh=0 / rc_lookahead=40 / rc=2pass / mbtree=0 / bitrate=2588 / ratetol=1.0 / qcomp=0.60 / qpmin=0 / qpmax=69 / qpstep=4 / cplxblur=20.0 / qblur=0.5 / vbv_maxrate=50000 / vbv_bufsize=50000 / nal_hrd=none / ip_ratio=1.40 / pb_ratio=1.30 / aq=1:1.00
Язык : English
Default : Да
Forced : Да

Аудио #1
Идентификатор : 2
Формат : AC-3
Формат/Информация : Audio Coding 3
Расширение режима : CM (complete main)
Параметр Endianness формата : Big
Идентификатор кодека : A_AC3
Продолжительность : 1 ч. 47 м.
Вид битрейта : Постоянный
Битрейт : 384 Кбит/сек
Каналы : 6 каналов
Расположение каналов : Front: L C R, Side: L R, LFE
Частота : 48,0 КГц
Битовая глубина : 16 бит
Метод сжатия : С потерями
Размер потока : 296 Мбайт (10%)
Заголовок : Многоголосый [Позитив]
Язык : Russian
Default : Нет
Forced : Нет

Аудио #2
Идентификатор : 3
Формат : AC-3
Формат/Информация : Audio Coding 3
Расширение режима : CM (complete main)
Параметр Endianness формата : Big
Идентификатор кодека : A_AC3
Продолжительность : 1 ч. 47 м.
Вид битрейта : Постоянный
Битрейт : 384 Кбит/сек
Каналы : 6 каналов
Расположение каналов : Front: L C R, Side: L R, LFE
Частота : 48,0 КГц
Битовая глубина : 16 бит
Метод сжатия : С потерями
Размер потока : 296 Мбайт (10%)
Заголовок : Авторский [Алексей Михалев]
Язык : Russian
Default : Нет
Forced : Нет

Аудио #3
Идентификатор : 4
Формат : AC-3
Формат/Информация : Audio Coding 3
Расширение режима : CM (complete main)
Параметр Endianness формата : Big
Идентификатор кодека : A_AC3
Продолжительность : 1 ч. 47 м.
Вид битрейта : Постоянный
Битрейт : 384 Кбит/сек
Каналы : 6 каналов
Расположение каналов : Front: L C R, Side: L R, LFE
Частота : 48,0 КГц
Битовая глубина : 16 бит
Метод сжатия : С потерями
Размер потока : 296 Мбайт (10%)
Язык : English
Default : Нет
Forced : Нет

Текст #1
Идентификатор : 5
Формат : UTF-8
Идентификатор кодека : S_TEXT/UTF8
Идентификатор кодека/Информация : UTF-8 Plain Text
Язык : Russian
Default : Нет
Forced : Нет

Текст #2
Идентификатор : 6
Формат : UTF-8
Идентификатор кодека : S_TEXT/UTF8
Идентификатор кодека/Информация : UTF-8 Plain Text
Заголовок : SDH
Язык : English
Default : Нет
Forced : Нет

Меню
00:00:00.000 : :Start
00:02:37.991 : :Wanda's Brother
00:05:09.643 : :Solid Plan, No Talking
00:07:23.568 : :Robbing the English
00:10:35.635 : :Double Double Cross
00:15:24.257 : :George in Jail
00:18:01.539 : :"Archie Leash...Leach!"
00:20:54.044 : :Otto-Erotica/the Key
00:28:23.493 : :Old Archie's Ethics
00:33:46.149 : :Coupling Rituals
00:37:28.621 : :Pre-Trial Motions & Emotions
00:41:27.360 : :Jealousy Is for the Weak
00:43:33.486 : :"Do You Despise Me?"
00:47:44.612 : :Harvey Manfrentenson
00:52:49.583 : :First Doggie Death
00:56:38.061 : :Trust, Sex and Archibald
01:00:13.610 : :The Vulgarian Way
01:02:56.481 : :Second Doggie Death
01:06:05.420 : :A Striking Apology
01:10:50.455 : :Russian Is for Lovers
01:16:23.037 : :Otto's Final Apology
01:18:12.271 : :Third Doggie Death
01:21:00.981 : :A Meal Called Wanda
01:26:47.327 : :Court in Chaos
01:30:29.674 : :Reasons for Love
01:34:08.142 : :"the Ca...the Ca..."
01:36:37.417 : :Heathrow Hustle
01:38:59.225 : :The End of Stuttering
Релиз от:



Скачать Рыбка.по.имени.Ванда.A.Fish.Called.Wanda.(Чарльз.Крайтон.Джон.Клиз).[1988.комедия.криминал.BDRip-AVC].[MVO]x2+[DVO]+[AVO]x3+[VO]+[Sub]x2.torrent без регистрации
Золото ЗОЛОТАЯ РАЗДАЧА! СКАЧАННОЕ НЕ ЗАСЧИТЫВАЕТСЯ! Золото
Дата: Зарегистрирован   [ Тип: внутренний ] Как тут cкачать?
MAGNET ссылка
MAGNET ссылка


Скачать .torrent

37 KB

Статус: проверено DHT
Скачан: торрент - 107 раз, раздача полностью - 1 раз
Размер: 3,54 GB
Оценка:  - (Голосов: 0)
Поблагодарили: 1
Поделиться ссылкой на эту раздачу с друзьями:
В контактеFacebookОдноклассникиTwitterLivejournalМой МирLiveinternet
 

 
Показать сообщения:    


Вы не можете начинать темы
Вы не можете отвечать на сообщения
Вы не можете редактировать свои сообщения
Вы не можете удалять свои сообщения
Вы не можете голосовать в опросах
Вы не можете прикреплять файлы к сообщениям
Вы можете скачивать файлы