Loading...
Error

Скачать Хронос / Cronos (Гильермо дель Торо) [1993, ужасы, триллер, драма, BDRip-AVC] [MVO]x2+[AVO]+[Оригинал]+[Sub]x2 торрент без регистрации

 
Статистика раздачи
Размер:  2,75 GB   |    Скачан:  131 раз
Сидов:  1  [  0 KB/s  ]  
 
Автор Сообщение

Marsianka

[] 

Информация о фильме
Название: Хронос
Оригинальное название: Cronos
Год выхода: 1993
Жанр: ужасы, триллер, драма
Режиссер: Гильермо дель Торо
В ролях: Федерико Луппи, Рон Перлман, Клаудио Брук, Маргарита Исабель, Тамара Шанат, Даниэль Хименес Качо, Марио Иван Мартинес, Хуан Карлос Коломбо, Фарнесио де Берналь, Луис Родригес, Хавьер Альварес, Адриана Оливера, Луис Де Икаса
О фильме:«Хронос» - это чудесное маленькое устройство, которое, сбежавший из Испании в Мексику гениальный алхимик Умберто Фальконелли, изобрел в 1536 году. Устройство, дарующее бессмертие... Правда, в 1937 году жизнь алхимика все-таки оборвалась в результате трагической случайности. Потому что «Хронос» обещал вечную жизнь при условии, что владелец будет собственной кровью питать его... Имущество особняка, где жил алхимик, было продано с молотка. И вот однажды хозяин антикварного магазина старик Хесус Грис расковырял фигурку ангела и, обнаружив внутри странную коробочку, привел в действие ее заводной механизм... Так у «Хроноса» появился новый владелец, но не только ему был известен секрет бессмертия...



Страна: Мексика
Студия: Producciones Iguana
Продолжительность: 01:32:28
Перевод: Профессиональный многоголосый + авторский одноголосый (С. Визгунов) + украинский + оригинал

Файл
Кодек: MPEG-4 AVC
Качество: BDRip-AVC
Видео: 3300 Кбит/с, 1024х576, 23.976 кадр/с
Аудио #1: Русский (AC3, 2 ch, 256 Кбит/с) / Профессиональный многоголосый (EA-Cinema)
Аудио #2: Русский (AC3, 2 ch, 256 Кбит/с) / Авторский одноголосый (С. Визгунов)
Аудио #3: Украинский (AC3, 2 ch, 192 Кбит/с) / Профессиональный многоголосый (канал HTH)
Аудио #4: Испанский (AC3, 2 ch, 256 Кбит/с)
Субтитры: Русские, английские
Семпл
General
Unique ID : 201342215318130121403070437039765175543 (0x977919A3C2D27738AEF3AC6FBC47BCF7)
Complete name : F:3Films FРелизыHronos.1993.x264.BDRip.AVC.MediaClub.mkv
Format : Matroska
Format version : Version 4 / Version 2
File size : 2.75 GiB
Duration : 1h 32mn
Overall bit rate : 4 259 Kbps
Movie name : -= MediaClub =- rip by Lefevr
Encoded date : UTC 2014-02-04 13:52:13
Writing application : mkvmerge v6.6.0 ('The Edge Of The In Between') built on Dec 1 2013 17:55:00
Writing library : libebml v1.3.0 + libmatroska v1.4.1

Video
ID : 1
Format : AVC
Format/Info : Advanced Video Codec
Format profile : High@L4.1
Format settings, CABAC : Yes
Format settings, ReFrames : 9 frames
Codec ID : V_MPEG4/ISO/AVC
Bit rate : 3 300 Kbps
Width : 1 024 pixels
Height : 576 pixels
Display aspect ratio : 16:9
Frame rate mode : Variable
Original frame rate : 23.976 fps
Color space : YUV
Chroma subsampling : 4:2:0
Bit depth : 8 bits
Scan type : Progressive
Bits/(Pixel*Frame) : 0.233
Title : Hronos.1993.x264.BDRip.AVC.MediaClub
Writing library : x264 core 130 r2273 b3065e6
Encoding settings : cabac=1 / ref=9 / deblock=1:-2:-2 / analyse=0x3:0x133 / me=umh / subme=11 / psy=1 / psy_rd=1.00:0.15 / mixed_ref=1 / me_range=32 / chroma_me=1 / trellis=2 / 8x8dct=1 / cqm=0 / deadzone=21,11 / fast_pskip=0 / chroma_qp_offset=-3 / threads=6 / lookahead_threads=1 / sliced_threads=0 / nr=0 / decimate=0 / interlaced=0 / bluray_compat=0 / constrained_intra=0 / bframes=8 / b_pyramid=2 / b_adapt=2 / b_bias=0 / direct=3 / weightb=1 / open_gop=0 / weightp=2 / keyint=240 / keyint_min=23 / scenecut=40 / intra_refresh=0 / rc=2pass / mbtree=0 / bitrate=3300 / ratetol=1.0 / qcomp=0.60 / qpmin=0 / qpmax=69 / qpstep=4 / cplxblur=20.0 / qblur=0.5 / ip_ratio=1.40 / pb_ratio=1.30 / aq=1:1.00
Language : English
Default : Yes
Forced : Yes

Audio #1
ID : 2
Format : AC-3
Format/Info : Audio Coding 3
Mode extension : CM (complete main)
Format settings, Endianness : Big
Codec ID : A_AC3
Duration : 1h 32mn
Bit rate mode : Constant
Bit rate : 256 Kbps
Channel(s) : 2 channels
Channel positions : Front: L R
Sampling rate : 48.0 KHz
Bit depth : 16 bits
Compression mode : Lossy
Stream size : 169 MiB (6%)
Title : TRACK_01_MVO_RUS
Language : Russian
Default : Yes
Forced : Yes

Audio #2
ID : 3
Format : AC-3
Format/Info : Audio Coding 3
Mode extension : CM (complete main)
Format settings, Endianness : Big
Codec ID : A_AC3
Duration : 1h 32mn
Bit rate mode : Constant
Bit rate : 256 Kbps
Channel(s) : 2 channels
Channel positions : Front: L R
Sampling rate : 48.0 KHz
Bit depth : 16 bits
Compression mode : Lossy
Stream size : 169 MiB (6%)
Title : TRACK_02_AVO_RUS_Vizgunov
Language : Russian
Default : No
Forced : No

Audio #3
ID : 4
Format : AC-3
Format/Info : Audio Coding 3
Mode extension : CM (complete main)
Format settings, Endianness : Big
Codec ID : A_AC3
Duration : 1h 32mn
Bit rate mode : Constant
Bit rate : 192 Kbps
Channel(s) : 2 channels
Channel positions : Front: L R
Sampling rate : 48.0 KHz
Bit depth : 16 bits
Compression mode : Lossy
Stream size : 127 MiB (5%)
Title : TRACK_03_MVO_UKR
Language : Ukrainian
Default : No
Forced : No

Audio #4
ID : 5
Format : AC-3
Format/Info : Audio Coding 3
Mode extension : CM (complete main)
Format settings, Endianness : Big
Codec ID : A_AC3
Duration : 1h 32mn
Bit rate mode : Constant
Bit rate : 256 Kbps
Channel(s) : 2 channels
Channel positions : Front: L R
Sampling rate : 48.0 KHz
Bit depth : 16 bits
Compression mode : Lossy
Stream size : 169 MiB (6%)
Title : TRACK_04_ORIGINAL_SPA
Language : Spanish
Default : No
Forced : No

Text #1
ID : 6
Format : UTF-8
Codec ID : S_TEXT/UTF8
Codec ID/Info : UTF-8 Plain Text
Title : TEXT_01_SUB_RUS
Language : Russian
Default : No
Forced : No

Text #2
ID : 7
Format : UTF-8
Codec ID : S_TEXT/UTF8
Codec ID/Info : UTF-8 Plain Text
Title : TEXT_02_SUB_ENG
Language : English
Default : No
Forced : No

Menu
00:00:00.000 : en:00:00:00.000
00:03:50.814 : en:00:03:50.814
00:06:34.311 : en:00:06:34.311
00:10:30.421 : en:00:10:30.421
00:14:16.230 : en:00:14:16.230
00:16:53.888 : en:00:16:53.888
00:20:15.297 : en:00:20:15.297
00:29:34.439 : en:00:29:34.439
00:34:38.326 : en:00:34:38.326
00:38:35.855 : en:00:38:35.855
00:40:43.775 : en:00:40:43.775
00:45:48.496 : en:00:45:48.496
00:51:46.186 : en:00:51:46.186
00:53:49.101 : en:00:53:49.101
00:55:47.636 : en:00:55:47.636
00:59:57.552 : en:00:59:57.552
01:04:54.140 : en:01:04:54.140
01:06:48.254 : en:01:06:48.254
01:08:13.631 : en:01:08:13.631
01:14:30.800 : en:01:14:30.800
01:18:00.301 : en:01:18:00.301
01:21:01.440 : en:01:21:01.440
01:26:45.742 : en:01:26:45.742
x264 [info]: frame I:794 Avg QP:12.33 size:108096
x264 [info]: frame P:27051 Avg QP:14.75 size: 37379
x264 [info]: frame B:105197 Avg QP:16.31 size: 11306
Сохранены оригинальные чаптеры как на Blu-ray.
За помощь в подготовке релиза спасибо Константину - Painter и Виталию - neni
За постер спасибо Инне - cookies от Media-Art-Club
За исходник спасибо HDClub
За украинскую дорогу спасибо трекеру Hurtom
Релиз от: | Автор рипа:



Скачать Хронос.Cronos.(Гильермо.дель.Торо).[1993.ужасы.триллер.драма.BDRip-AVC].[MVO]x2+[AVO]+[Оригинал]+[Sub]x2.torrent без регистрации
Золото ЗОЛОТАЯ РАЗДАЧА! СКАЧАННОЕ НЕ ЗАСЧИТЫВАЕТСЯ! Золото
Дата: Зарегистрирован   [ Тип: внутренний ] Как тут cкачать?
MAGNET ссылка
MAGNET ссылка


Скачать .torrent

14 KB

Статус: проверено DHT
Скачан: торрент - 131 раз, раздача полностью - 19 раз
Размер: 2,75 GB
Оценка:  - (Голосов: 0)
Поблагодарили: 2
Поделиться ссылкой на эту раздачу с друзьями:
В контактеFacebookОдноклассникиTwitterLivejournalМой МирLiveinternet
 

 
Показать сообщения:    


Вы не можете начинать темы
Вы не можете отвечать на сообщения
Вы не можете редактировать свои сообщения
Вы не можете удалять свои сообщения
Вы не можете голосовать в опросах
Вы не можете прикреплять файлы к сообщениям
Вы можете скачивать файлы