Loading...
Error

Скачать Воспитание чувств / An Education (Лоне Шерфиг) [2009, драма, экранизация, BDRip-AVC] [MVO]x2+[Оригинал]+[Sub]x3 торрент без регистрации

 
Статистика раздачи
Размер:  2,61 GB   |    Скачан:  131 раз
Сидов:  1  [  0 KB/s  ]  
 
Автор Сообщение

Marsianka

[] 

Информация о фильме
Название: Воспитание чувств
Оригинальное название: An Education
Год выхода: 2009
Жанр: драма, экранизация
Режиссер: Лоне Шерфиг
В ролях: Кэри Маллиган, Питер Сарсгаард, Доминик Купер, Розамунд Пайк, Эмма Томпсон, Оливия Уильямс, Альфред Молина, Кэра Сеймур, Уильям Меллинг, Коннор Кэчпоул, Мэттью Бирд, Аманда Фейрбэнк-Хайнс, Элли Кендрик, Ник Сэмпсон, Кейт Дюшен, Бел Паркер, Луис Сото, Оленка Вресневски, Брайони Вэдсворт, Эшли Тэйлор-Риз, Салли Хокинс, Бен Кастл, Марк Эдвардс, Том Рис-Робертс
О фильме: Экранизация книги Ника Хорнби. Дженни 16 лет, она способная ученица, талантливая виолончелистка и просто хорошая девочка. Она мечтает об образовании, и конкретно об Оксфорде. На дворе начало 60-х, а Дженни живет в сонной и скучной провинции. Оксфорд - ее шанс. И тут Дженни знакомится с обаятельным красавцем Дэвидом, который вдвое ее старше, но зато водит спортивную машину, носит модную одежду, знает о джазе и Равеле, арт-аукционах и закрытых клубах, уикендах в Париже и прочих шикарных вещах. После этого Оксфорд перестает казаться Дженни обязательным пунктом программы.



Страна: Великобритания, США
Студия: BBC Films, Finola Dwyer Productions, Wildgaze Films
Продолжительность: 01:40:21
Перевод: Профессиональный многоголосый + украинский + оригинал

Файл
Кодек: MPEG-4 AVC
Качество: BDRip-AVC
Видео: 2800 Кбит/с, 1024х436, 23.976 кадр/с
Аудио #1: Русский (AC3, 6 ch, 448 Кбит/с) / Профессиональный многоголосый (R5)
Аудио #2: Украинский (AC3, 2 ch, 192 Кбит/с) / Профессиональный многоголосый (Novy)
Аудио #3: Английский (AC3, 6 ch, 448 Кбит/с)
Субтитры: Русские, украинские, английские
Семпл
General
Unique ID : 184711168991632982375135875249109741717 (0x8AF613BF9A4CC813B473946B72303095)
Complete name : F:3Films FРелизыVospitanie.chuvstv.2009.x264.BDRip.AVC.MediaClub.mkv
Format : Matroska
Format version : Version 4 / Version 2
File size : 2.61 GiB
Duration : 1h 40mn
Overall bit rate : 3 718 Kbps
Movie name : -= MediaClub =- rip by Lefevr
Encoded date : UTC 2014-02-04 12:53:26
Writing application : mkvmerge v6.6.0 ('The Edge Of The In Between') built on Dec 1 2013 17:55:00
Writing library : libebml v1.3.0 + libmatroska v1.4.1

Video
ID : 1
Format : AVC
Format/Info : Advanced Video Codec
Format profile : High@L4.1
Format settings, CABAC : Yes
Format settings, ReFrames : 9 frames
Codec ID : V_MPEG4/ISO/AVC
Duration : 1h 40mn
Bit rate : 2 556 Kbps
Nominal bit rate : 2 800 Kbps
Width : 1 024 pixels
Height : 436 pixels
Display aspect ratio : 2.35:1
Frame rate mode : Constant
Frame rate : 23.976 fps
Color space : YUV
Chroma subsampling : 4:2:0
Bit depth : 8 bits
Scan type : Progressive
Bits/(Pixel*Frame) : 0.239
Stream size : 1.79 GiB (69%)
Title : Vospitanie.chuvstv.2009.x264.BDRip.AVC.MediaClub
Writing library : x264 core 130 r2273 b3065e6
Encoding settings : cabac=1 / ref=9 / deblock=1:-2:-2 / analyse=0x3:0x133 / me=umh / subme=11 / psy=1 / psy_rd=1.00:0.15 / mixed_ref=1 / me_range=32 / chroma_me=1 / trellis=2 / 8x8dct=1 / cqm=0 / deadzone=21,11 / fast_pskip=0 / chroma_qp_offset=-3 / threads=6 / lookahead_threads=1 / sliced_threads=0 / nr=0 / decimate=0 / interlaced=0 / bluray_compat=0 / constrained_intra=0 / bframes=8 / b_pyramid=2 / b_adapt=2 / b_bias=0 / direct=3 / weightb=1 / open_gop=0 / weightp=2 / keyint=240 / keyint_min=23 / scenecut=40 / intra_refresh=0 / rc=2pass / mbtree=0 / bitrate=2800 / ratetol=1.0 / qcomp=0.60 / qpmin=0 / qpmax=69 / qpstep=4 / cplxblur=20.0 / qblur=0.5 / ip_ratio=1.40 / pb_ratio=1.30 / aq=1:1.00
Language : English
Default : Yes
Forced : Yes

Audio #1
ID : 2
Format : AC-3
Format/Info : Audio Coding 3
Mode extension : CM (complete main)
Format settings, Endianness : Big
Codec ID : A_AC3
Duration : 1h 40mn
Bit rate mode : Constant
Bit rate : 448 Kbps
Channel(s) : 6 channels
Channel positions : Front: L C R, Side: L R, LFE
Sampling rate : 48.0 KHz
Bit depth : 16 bits
Compression mode : Lossy
Stream size : 322 MiB (12%)
Title : TRACK_01_MVO_RUS
Language : Russian
Default : Yes
Forced : Yes

Audio #2
ID : 3
Format : AC-3
Format/Info : Audio Coding 3
Mode extension : CM (complete main)
Format settings, Endianness : Big
Codec ID : A_AC3
Duration : 1h 40mn
Bit rate mode : Constant
Bit rate : 192 Kbps
Channel(s) : 2 channels
Channel positions : Front: L R
Sampling rate : 48.0 KHz
Bit depth : 16 bits
Compression mode : Lossy
Stream size : 138 MiB (5%)
Title : TRACK_02_MVO_UKR_Gelios
Language : Ukrainian
Default : No
Forced : No

Audio #3
ID : 4
Format : AC-3
Format/Info : Audio Coding 3
Mode extension : CM (complete main)
Format settings, Endianness : Big
Codec ID : A_AC3
Duration : 1h 40mn
Bit rate mode : Constant
Bit rate : 448 Kbps
Channel(s) : 6 channels
Channel positions : Front: L C R, Side: L R, LFE
Sampling rate : 48.0 KHz
Bit depth : 16 bits
Compression mode : Lossy
Stream size : 322 MiB (12%)
Title : TRACK_03_ORIGINAL_ENG
Language : English
Default : No
Forced : No

Text #1
ID : 5
Format : UTF-8
Codec ID : S_TEXT/UTF8
Codec ID/Info : UTF-8 Plain Text
Title : TEXT_01_SUB_RUS
Language : Russian
Default : No
Forced : No

Text #2
ID : 6
Format : UTF-8
Codec ID : S_TEXT/UTF8
Codec ID/Info : UTF-8 Plain Text
Title : TEXT_02_SUB_UKR
Language : Ukrainian
Default : No
Forced : No

Text #3
ID : 7
Format : UTF-8
Codec ID : S_TEXT/UTF8
Codec ID/Info : UTF-8 Plain Text
Title : TEXT_03_SUB_ENG
Language : English
Default : No
Forced : No

Menu
00:00:00.000 : en:Chapter 01
00:09:47.502 : en:Chapter 02
00:11:39.781 : en:Chapter 03
00:19:46.476 : en:Chapter 04
00:24:04.651 : en:Chapter 05
00:31:30.305 : en:Chapter 06
00:34:48.460 : en:Chapter 07
00:41:25.065 : en:Chapter 08
00:49:07.444 : en:Chapter 09
00:54:21.800 : en:Chapter 10
01:01:24.597 : en:Chapter 11
01:05:52.281 : en:Chapter 12
01:13:33.367 : en:Chapter 13
01:17:47.204 : en:Chapter 14
01:24:24.893 : en:Chapter 15
01:31:14.427 : en:Chapter 16
x264 [info]: frame I:1177 Avg QP:16.79 size: 89788
x264 [info]: frame P:28485 Avg QP:19.05 size: 29722
x264 [info]: frame B:114698 Avg QP:20.84 size: 10066
Сохранены оригинальные чаптеры как на Blu-ray.
За помощь в подготовке релиза спасибо Константину - Painter и Виталию - neni
За исходник спасибо HDClub
За украинскую дорогу спасибо трекеру Hurtom
Релиз от:

Автор рипа:



Скачать Воспитание.чувств.An.Education.(Лоне.Шерфиг).[2009.драма.экранизация.BDRip-AVC].[MVO]x2+[Оригинал]+[Sub]x3.torrent без регистрации
Золото ЗОЛОТАЯ РАЗДАЧА! СКАЧАННОЕ НЕ ЗАСЧИТЫВАЕТСЯ! Золото
Дата: Зарегистрирован   [ Тип: внутренний ] Как тут cкачать?
MAGNET ссылка
MAGNET ссылка


Скачать .torrent

14 KB

Статус: проверено DHT
Скачан: торрент - 131 раз, раздача полностью - 3 раз
Размер: 2,61 GB
Оценка:  - (Голосов: 0)
Поблагодарили: 1
Поделиться ссылкой на эту раздачу с друзьями:
В контактеFacebookОдноклассникиTwitterLivejournalМой МирLiveinternet
 

 
Показать сообщения:    


Вы не можете начинать темы
Вы не можете отвечать на сообщения
Вы не можете редактировать свои сообщения
Вы не можете удалять свои сообщения
Вы не можете голосовать в опросах
Вы не можете прикреплять файлы к сообщениям
Вы можете скачивать файлы