Loading...
Error

Скачать Телохранитель / Yojimbo (Акира Куросава) [1961, боевик, триллер, комедия, драма, криминал, BDRip-AVC] [MVO]x3+[AVO]x2+[VO]+[Оригинал]+[Sub]x4 торрент без регистрации

 
Статистика раздачи
Размер:  3,54 GB   |    Скачан:  122 раза

Полного источника не было: 20 минут

 
Автор Сообщение

Marsianka

[] 

Информация о фильме
Название: Телохранитель
Оригинальное название: Yojimbo
Год выхода: 1961
Жанр: боевик, триллер, комедия, драма, криминал
Режиссер: Акира Куросава
В ролях: Тосиро Мифунэ, Татсуя Накадаи, Исузу Ямада, Дайсукэ Като, Такаси Симура, Есукэ Нацуки, Эйдзиро Тоно, Каматари Фудзивара, Икио Савамура, Атсуси Ватанабе, Киу Сазанка, Дженни Симидзу, Ютака Сада, Фумико Хомма
О фильме: В некий японский городок приходит самурай. Самурай выглядит совершенно не по-самурайски: плохо пострижен, не причёсан. А в городе две организованных преступные группы, созданные местечковыми олигархами из лиц, находящихся под следствием и в розыске, терроризируют жителей городка, жестоко страдающих от бандитского беспредела Проявляя недюжинную оперативную смекалку и мастерски работая мечом, попеременно нанимаясь телохранителем то в одну, то в другую банду, самурай искусно сокращает поголовье уродов, попутно решая свои собственные задачи.



Страна: Япония
Студия: Kurosawa Production Co. Ltd., Toho Company
Продолжительность: 01:50:52
Перевод: Профессиональный многоголосый + авторский одноголосый (Ю. Живов), (Д. Пучков) + любительский одноголосый + украинский + оригинал

Файл
Кодек: MPEG-4 AVC
Качество: BDRip-AVC
Видео: 3000 Кбит/с, 1024х436, 23.976 кадр/с
Аудио #1: Русский (AC3, 2 ch, 192 Кбит/с) / Профессиональный многоголосый (Cinema Prestige)
Аудио #2: Русский (AC3, 2 ch, 256 Кбит/с) / Профессиональный многоголосый (DVD Магия)
Аудио #3: Русский (AC3, 3 ch, 256 Кбит/с) / Авторский одноголосый (Ю. Живов)
Аудио #4: Русский (AC3, 2 ch, 256 Кбит/с) / Авторский одноголосый (Д. Пучков)
Аудио #5: Русский (AC3, 1 ch, 128 Кбит/с) / Любительский одноголосый (Transaktosh)
Аудио #6: Украинский (AC3, 3 ch, 224 Кбит/с) / Профессиональный многоголосый (Омкрон)
Аудио #7: Японский (AC3, 3 ch, 256 Кбит/с)
Субтитры: Русские (2 вида), украинские, английские
Семпл
General
Unique ID : 201123086864926431543697258427585666423 (0x974EE5C5D77DA3DBB424DF3537601D77)
Complete name : F:3Films FРелизыTelohranitel.1961.x264.BDRip.AVC.MediaClub.mkv
Format : Matroska
Format version : Version 4 / Version 2
File size : 3.54 GiB
Duration : 1h 50mn
Overall bit rate : 4 571 Kbps
Movie name : -= MediaClub =- rip by Lefevr
Encoded date : UTC 2014-02-04 14:38:32
Writing application : mkvmerge v6.6.0 ('The Edge Of The In Between') built on Dec 1 2013 17:55:00
Writing library : libebml v1.3.0 + libmatroska v1.4.1

Video
ID : 1
Format : AVC
Format/Info : Advanced Video Codec
Format profile : High@L4.1
Format settings, CABAC : Yes
Format settings, ReFrames : 9 frames
Codec ID : V_MPEG4/ISO/AVC
Bit rate : 3 000 Kbps
Width : 1 024 pixels
Height : 436 pixels
Display aspect ratio : 2.35:1
Frame rate mode : Variable
Original frame rate : 23.976 fps
Color space : YUV
Chroma subsampling : 4:2:0
Bit depth : 8 bits
Scan type : Progressive
Bits/(Pixel*Frame) : 0.280
Title : Telohranitel.1961.x264.BDRip.AVC.MediaClub
Writing library : x264 core 130 r2273 b3065e6
Encoding settings : cabac=1 / ref=9 / deblock=1:-3:-3 / analyse=0x3:0x133 / me=umh / subme=11 / psy=1 / psy_rd=1.05:0.20 / mixed_ref=1 / me_range=32 / chroma_me=1 / trellis=2 / 8x8dct=1 / cqm=0 / deadzone=21,11 / fast_pskip=0 / chroma_qp_offset=-3 / threads=6 / lookahead_threads=1 / sliced_threads=0 / nr=0 / decimate=0 / interlaced=0 / bluray_compat=0 / constrained_intra=0 / bframes=8 / b_pyramid=2 / b_adapt=2 / b_bias=0 / direct=3 / weightb=1 / open_gop=0 / weightp=2 / keyint=240 / keyint_min=23 / scenecut=40 / intra_refresh=0 / rc=2pass / mbtree=0 / bitrate=3000 / ratetol=1.0 / qcomp=0.60 / qpmin=0 / qpmax=69 / qpstep=4 / cplxblur=20.0 / qblur=0.5 / ip_ratio=1.40 / pb_ratio=1.30 / aq=1:1.00
Language : Japanese
Default : Yes
Forced : Yes

Audio #1
ID : 2
Format : AC-3
Format/Info : Audio Coding 3
Mode extension : CM (complete main)
Format settings, Endianness : Big
Codec ID : A_AC3
Duration : 1h 50mn
Bit rate mode : Constant
Bit rate : 192 Kbps
Channel(s) : 2 channels
Channel positions : Front: L R
Sampling rate : 48.0 KHz
Bit depth : 16 bits
Compression mode : Lossy
Stream size : 152 MiB (4%)
Title : TRACK_01_MVO_RUS_Cinema Prestige
Language : Russian
Default : Yes
Forced : Yes

Audio #2
ID : 3
Format : AC-3
Format/Info : Audio Coding 3
Mode extension : CM (complete main)
Format settings, Endianness : Big
Codec ID : A_AC3
Duration : 1h 50mn
Bit rate mode : Constant
Bit rate : 256 Kbps
Channel(s) : 2 channels
Channel positions : Front: L R
Sampling rate : 48.0 KHz
Bit depth : 16 bits
Compression mode : Lossy
Stream size : 203 MiB (6%)
Title : TRACK_02_MVO_RUS_DVDMagia
Language : Russian
Default : No
Forced : No

Audio #3
ID : 4
Format : AC-3
Format/Info : Audio Coding 3
Mode extension : CM (complete main)
Format settings, Endianness : Big
Codec ID : A_AC3
Duration : 1h 50mn
Bit rate mode : Constant
Bit rate : 256 Kbps
Channel(s) : 3 channels
Channel positions : Front: L C R
Sampling rate : 48.0 KHz
Bit depth : 16 bits
Compression mode : Lossy
Stream size : 203 MiB (6%)
Title : TRACK_03_AVO_RUS_Zhivov
Language : Russian
Default : No
Forced : No

Audio #4
ID : 5
Format : AC-3
Format/Info : Audio Coding 3
Mode extension : CM (complete main)
Format settings, Endianness : Big
Codec ID : A_AC3
Duration : 1h 50mn
Bit rate mode : Constant
Bit rate : 256 Kbps
Channel(s) : 2 channels
Channel positions : Front: L R
Sampling rate : 48.0 KHz
Bit depth : 16 bits
Compression mode : Lossy
Stream size : 203 MiB (6%)
Title : TRACK_04_AVO_RUS_Puchkov
Language : Russian
Default : No
Forced : No

Audio #5
ID : 6
Format : AC-3
Format/Info : Audio Coding 3
Mode extension : CM (complete main)
Format settings, Endianness : Big
Codec ID : A_AC3
Duration : 1h 50mn
Bit rate mode : Constant
Bit rate : 128 Kbps
Channel(s) : 1 channel
Channel positions : Front: C
Sampling rate : 48.0 KHz
Bit depth : 16 bits
Compression mode : Lossy
Stream size : 102 MiB (3%)
Title : TRACK_05_VO_RUS_Transaktosh
Language : Russian
Default : No
Forced : No

Audio #6
ID : 7
Format : AC-3
Format/Info : Audio Coding 3
Mode extension : CM (complete main)
Format settings, Endianness : Big
Codec ID : A_AC3
Duration : 1h 50mn
Bit rate mode : Constant
Bit rate : 224 Kbps
Channel(s) : 3 channels
Channel positions : Front: L C R
Sampling rate : 48.0 KHz
Bit depth : 16 bits
Compression mode : Lossy
Stream size : 178 MiB (5%)
Title : TRACK_06_MVO_UKR
Language : Ukrainian
Default : No
Forced : No

Audio #7
ID : 8
Format : AC-3
Format/Info : Audio Coding 3
Mode extension : CM (complete main)
Format settings, Endianness : Big
Codec ID : A_AC3
Duration : 1h 50mn
Bit rate mode : Constant
Bit rate : 256 Kbps
Channel(s) : 3 channels
Channel positions : Front: L C R
Sampling rate : 48.0 KHz
Bit depth : 16 bits
Compression mode : Lossy
Stream size : 203 MiB (6%)
Title : TRACK_07_ORIGINAL_JPN
Language : Japanese
Default : No
Forced : No

Text #1
ID : 9
Format : UTF-8
Codec ID : S_TEXT/UTF8
Codec ID/Info : UTF-8 Plain Text
Title : TEXT_01_SUB_RUS_Transaktosh
Language : Russian
Default : No
Forced : No

Text #2
ID : 10
Format : UTF-8
Codec ID : S_TEXT/UTF8
Codec ID/Info : UTF-8 Plain Text
Title : TEXT_02_SUB_RUS
Language : Russian
Default : No
Forced : No

Text #3
ID : 11
Format : UTF-8
Codec ID : S_TEXT/UTF8
Codec ID/Info : UTF-8 Plain Text
Title : TEXT_03_SUB_UKR
Language : Ukrainian
Default : No
Forced : No

Text #4
ID : 12
Format : UTF-8
Codec ID : S_TEXT/UTF8
Codec ID/Info : UTF-8 Plain Text
Title : TEXT_04_SUB_ENG
Language : English
Default : No
Forced : No

Menu
00:00:00.000 : en:Chapter 1
00:05:55.813 : en:Chapter 2
00:16:19.770 : en:Chapter 3
00:20:04.578 : en:Chapter 4
00:21:14.731 : en:Chapter 5
00:23:33.954 : en:Chapter 6
00:25:52.384 : en:Chapter 7
00:32:45.338 : en:Chapter 8
00:38:59.253 : en:Chapter 9
00:42:38.138 : en:Chapter 10
00:46:31.038 : en:Chapter 11
00:49:35.973 : en:Chapter 12
00:51:17.657 : en:Chapter 13
00:56:05.195 : en:Chapter 14
00:59:19.264 : en:Chapter 15
01:03:19.670 : en:Chapter 16
01:05:22.209 : en:Chapter 17
01:07:19.785 : en:Chapter 18
01:12:05.112 : en:Chapter 19
01:13:49.466 : en:Chapter 20
01:18:47.639 : en:Chapter 21
01:23:24.582 : en:Chapter 22
01:32:26.290 : en:Chapter 23
01:38:10.175 : en:Chapter 24
01:39:59.618 : en:Chapter 25
01:41:24.995 : en:Chapter 26
Bits/(Pixel*Frame) : 0.280
x264 log
x264 [info]: frame I:850 Avg QP:18.91 size: 78521
x264 [info]: frame P:40394 Avg QP:21.77 size: 28542
x264 [info]: frame B:118242 Avg QP:23.73 size: 10780
Сохранены оригинальные чаптеры как на Blu-ray.
За помощь в подготовке релиза спасибо Константину - Painter и Виталию - neni
За постер спасибо Инне - cookies от Media-Art-Club
За исходник спасибо HDClub
За украинскую дорогу спасибо трекеру Hurtom
Релиз от: | Автор рипа:



Скачать Телохранитель.Yojimbo.(Акира.Куросава).[1961.боевик.триллер.комедия.драма.криминал.BDRip-AVC].[MVO]x3+[AVO]x2+[VO]+[Оригинал]+[Sub]x4.torrent без регистрации
Золото ЗОЛОТАЯ РАЗДАЧА! СКАЧАННОЕ НЕ ЗАСЧИТЫВАЕТСЯ! Золото
Дата: Зарегистрирован   [ Тип: внутренний ] Как тут cкачать?
MAGNET ссылка
MAGNET ссылка


Скачать .torrent

18 KB

Статус: проверено DHT
Скачан: торрент - 122 раз, раздача полностью - 104 раз
Размер: 3,54 GB
Оценка:  - (Голосов: 0)
Поблагодарили: 2
Поделиться ссылкой на эту раздачу с друзьями:
В контактеFacebookОдноклассникиTwitterLivejournalМой МирLiveinternet
 

 
Показать сообщения:    


Вы не можете начинать темы
Вы не можете отвечать на сообщения
Вы не можете редактировать свои сообщения
Вы не можете удалять свои сообщения
Вы не можете голосовать в опросах
Вы не можете прикреплять файлы к сообщениям
Вы можете скачивать файлы