Loading...
Error

Скачать И слоны бывают неверны / Un elephant —a trompe enormement (Ив Робер) [1976, комедия, DVDRip-AVC] [MVO]+[VO]+[Оригинал]+[Sub] торрент без регистрации

 
Статистика раздачи
Размер:  1,45 GB   |    Скачан:  152 раза
Сидов:  1  [  0 KB/s  ]  
 
Автор Сообщение

Marsianka

[] 

Страна: Франция
Жанр: комедия
Год выпуска: 1976
Продолжительность: 01:43:07
Перевод: Профессиональный (многоголосый, закадровый)(СВ-Дубль) + Профессиональный (одноголосый)(С. Кузьмичев) + Оригинальный
Субтитры: русские (Форсированные (на места, не покрытые одноголосой озвучкой))
Режиссер: Ив Робер / Yves Robert
В ролях: Жан Рошфор (ytienne), Клод Брассёр (Daniel), Ги Бедос (Simon), Виктор Лану (Bouly), Даниэль Делорм (Marthe), Анни Дюпре (Charlotte), Мартин Сарси (Esperanza), Марта Виллалонга (Mouchy Messina), Луиз Конте (Marraine), Кристоф Бурсейе (Lucien), Морис Бенишу (Gonthier), Жан Лекот (Le patient inquiet)
Описание: История четырех неунывающих друзей, которые в свои "немного за 40" сохраняют бодрость духа и страсть к амурным приключениям. "Добропорядочный" семьянин и сотрудник министерства Этьен; щеголеватый работник автомастерской Даниэль; старый холостяк, маменькин сынок и преуспевающий врач Симон; хамоватый и вспыльчивый многодетный отец Були (человек неопределенного рода занятий) - четверо закадычных друзей, которые постоянно ввязываются в забавные приключения и попадают в весьма пикантные ситуации, призванные вызвать все виды смеха от ироничной улыбки до истерического хохота.


MPAA: PG - Рекомендуется присутствие родителей
Семпл
Качество: DVDRip
Контейнер: MKV

Видео: AVC, 720x432 (1.667), 1431 kbps, 25 fps, 0,184 bpp
Аудио 1: русский / AC3 / 2.0 / 48 kHz / 192 kbps
Аудио 2: русский / AC3 / 2.0 / 48 kHz / 192 kbps
Аудио 3: французский / AC3 / 2.0 / 48 kHz / 192 kbps
Навигация по главам: есть



Format : Matroska
Format version : Version 2
File size : 1.45 GiB
Duration : 1h 43mn
Overall bit rate : 2 009 Kbps
Movie name : = И слоны бывают неверны / Un elephant ca trompe enormement DVDRip by SC Kosmos =
Encoded date : UTC 2014-02-08 12:44:55
Writing application : mkvmerge v3.3.0 ('Language') gebaut am Mar 24 2010 14:59:24
Writing library : libebml v0.8.0 + libmatroska v0.9.0

Video
ID : 1
Format : AVC
Format/Info : Advanced Video Codec
Format profile : High@L4.1
Format settings, CABAC : Yes
Format settings, ReFrames : 12 frames
Codec ID : V_MPEG4/ISO/AVC
Duration : 1h 43mn
Bit rate : 1 431 Kbps
Width : 720 pixels
Height : 432 pixels
Display aspect ratio : 1.667
Frame rate : 25.000 fps
Color space : YUV
Chroma subsampling : 4:2:0
Bit depth : 8 bits
Scan type : Progressive
Bits/(Pixel*Frame) : 0.184
Stream size : 1.00 GiB (69%)
Title : И слоны бывают неверны / Un elephant ca trompe enormement DVDRip by SC Kosmos
Writing library : x264 core 142 r2389 956c8d8
Encoding settings : cabac=1 / ref=12 / deblock=1:-2:-2 / analyse=0x3:0x113 / me=umh / subme=11 / psy=1 / psy_rd=1.00:0.00 / mixed_ref=1 / me_range=48 / chroma_me=1 / trellis=2 / 8x8dct=1 / cqm=0 / deadzone=21,11 / fast_pskip=0 / chroma_qp_offset=-2 / threads=12 / lookahead_threads=1 / sliced_threads=0 / nr=0 / decimate=1 / interlaced=0 / bluray_compat=0 / constrained_intra=0 / bframes=12 / b_pyramid=2 / b_adapt=1 / b_bias=0 / direct=3 / weightb=1 / open_gop=0 / weightp=2 / keyint=250 / keyint_min=25 / scenecut=40 / intra_refresh=0 / rc_lookahead=40 / rc=2pass / mbtree=0 / bitrate=1431 / ratetol=1.0 / qcomp=0.60 / qpmin=0 / qpmax=69 / qpstep=4 / cplxblur=20.0 / qblur=0.5 / vbv_maxrate=50000 / vbv_bufsize=50000 / nal_hrd=none / filler=0 / ip_ratio=1.40 / pb_ratio=1.30 / aq=1:1.00
Language : French
Default : No
Forced : No

Audio #1
ID : 2
Format : AC-3
Format/Info : Audio Coding 3
Mode extension : CM (complete main)
Codec ID : A_AC3
Duration : 1h 43mn
Bit rate mode : Constant
Bit rate : 192 Kbps
Channel(s) : 2 channels
Channel positions : Front: L R
Sampling rate : 48.0 KHz
Bit depth : 16 bits
Compression mode : Lossy
Stream size : 142 MiB (10%)
Title : MVO (СВ-Дубль по заказу ЗАО "6-й канал")
Language : Russian
Default : Yes
Forced : No

Audio #2
ID : 3
Format : AC-3
Format/Info : Audio Coding 3
Mode extension : CM (complete main)
Codec ID : A_AC3
Duration : 1h 43mn
Bit rate mode : Constant
Bit rate : 192 Kbps
Channel(s) : 2 channels
Channel positions : Front: L R
Sampling rate : 48.0 KHz
Bit depth : 16 bits
Compression mode : Lossy
Stream size : 142 MiB (10%)
Title : AVO (С. Кузьмичев)
Language : Russian
Default : No
Forced : No

Audio #3
ID : 4
Format : AC-3
Format/Info : Audio Coding 3
Mode extension : CM (complete main)
Codec ID : A_AC3
Duration : 1h 43mn
Bit rate mode : Constant
Bit rate : 192 Kbps
Channel(s) : 2 channels
Channel positions : Front: L R
Sampling rate : 48.0 KHz
Bit depth : 16 bits
Compression mode : Lossy
Stream size : 142 MiB (10%)
Language : French
Default : No
Forced : No

Text
ID : 5
Format : UTF-8
Codec ID : S_TEXT/UTF8
Codec ID/Info : UTF-8 Plain Text
Title : Форсированные (на места, не покрытые одноголосой озвучкой)
Language : Russian
Default : No
Forced : No

Menu
00:00:00.000 : en:Chapter 01
00:07:22.760 : en:Chapter 02
00:19:43.360 : en:Chapter 03
00:27:25.840 : en:Chapter 04
00:38:13.040 : en:Chapter 05
00:50:29.520 : en:Chapter 06
00:54:06.800 : en:Chapter 07
01:04:29.160 : en:Chapter 08
01:15:08.760 : en:Chapter 09
01:22:36.640 : en:Chapter 10
01:31:44.200 : en:Chapter 11
01:41:34.920 : en:Chapter 12



Скачать И.слоны.бывают.неверны.Un.elephant.—a.trompe.enormement.(Ив.Робер).[1976.комедия.DVDRip-AVC].[MVO]+[VO]+[Оригинал]+[Sub].torrent без регистрации
Золото ЗОЛОТАЯ РАЗДАЧА! СКАЧАННОЕ НЕ ЗАСЧИТЫВАЕТСЯ! Золото
Дата: Зарегистрирован   [ Тип: внутренний ] Как тут cкачать?
MAGNET ссылка
MAGNET ссылка


Скачать .torrent

15 KB

Статус: проверено DHT
Скачан: торрент - 152 раз, раздача полностью - 0 раз
Размер: 1,45 GB
Оценка:  - (Голосов: 0)
Поблагодарили: 1
Поделиться ссылкой на эту раздачу с друзьями:
В контактеFacebookОдноклассникиTwitterLivejournalМой МирLiveinternet
 

 
Показать сообщения:    


Вы не можете начинать темы
Вы не можете отвечать на сообщения
Вы не можете редактировать свои сообщения
Вы не можете удалять свои сообщения
Вы не можете голосовать в опросах
Вы не можете прикреплять файлы к сообщениям
Вы можете скачивать файлы