Loading...
Error

Скачать Город ангелов / City of Angels (Брэд Силберлинг) [1998, фэнтези, драма, мелодрама, BDRip-AVC] [Dub]+[Sub]x2 торрент без регистрации

 
Статистика раздачи
Размер:  1,45 GB   |    Скачан:  133 раза
Сидов:  1  [  0 KB/s  ]  
 
Автор Сообщение

Marsianka

[] 

Город ангелов / City of Angels (1998) BDRip-AVC

Информация о фильме
Название: Город ангелов
Оригинальное название: City of Angels
Год выхода: 1998
Жанр: фэнтези, драма, мелодрама
Режиссер: Брэд Силберлинг

В ролях: Николас Кейдж, Мег Райан, Андре Брогер, Деннис Франц, Колм Фиор, Робин Бартлетт, Джоанна Мерлин, Сара Дэмф, Ронда Дотсон, Найджел Гиббс, Валерий Сторожик, Всеволод Кузнецов, Любовь Германова, Мария Овчинникова, Александр Рахленко...

О фильме: Ангелы живут не на небесах. Они невидимо присутствуют рядом с людьми, прислушиваясь к их мыслям и направляя их поступки, подбадривая и утешая в минуты отчаяния. Но для них не существует мира человеческих чувств: вкуса черного кофе, боли порезанного пальца или любви. Поэтому некоторых из них так тянет к людям, и порой ангел теряет свои крылья и превращается в простого смертного. Что и происходит с героем фильма, которого увлекла на Землю любовь к женщине.



Страна: Германия, США
Продолжительность: 01:54:13
Перевод: Дублированный | Мост Видео

Файл
Кодек: x.264
Качество: BDRip-AVC
Видео: 1024x432 (2,40:1), 1436 kbps, 0.135 bit/pixel
Звук: 48 kHz, AC3 Dolby Digital, 6 ch, ~384.00 kbps
Субтитры: Русские, Английские (отключаемые)

&
Общее
Уникальный идентификатор : 221479893861040701546669940265230745823 (0xA69F79D8F39B3381845581BD793740DF)
Полное имя : D:City of Angels.1998.BDRip-AVC.mkv
Формат : Matroska
Версия формата : Version 4 / Version 2
Размер файла : 1,45 Гбайт
Продолжительность : 1 ч. 54 м.
Общий поток : 1821 Кбит/сек
Название фильма : Город ангелов / City of Angels (1998) BDRip-AVC rip by Rulya74
Дата кодирования : UTC 2014-02-08 16:14:20
Программа кодирования : mkvmerge v6.6.0 ('The Edge Of The In Between') built on Dec 1 2013 17:55:00
Библиотека кодирования : libebml v1.3.0 + libmatroska v1.4.1

Видео
Идентификатор : 1
Формат : AVC
Формат/Информация : Advanced Video Codec
Профиль формата : High@L4.1
Параметр CABAC формата : Да
Параметр ReFrames формата : 10 кадров
Идентификатор кодека : V_MPEG4/ISO/AVC
Продолжительность : 1 ч. 54 м.
Битрейт : 1436 Кбит/сек
Ширина : 1024 пикселя
Высота : 432 пикселя
Соотношение сторон : 2,40:1
Режим частоты кадров : Постоянный
Частота кадров : 23,976 кадра/сек
Цветовое пространство : YUV
Субдискретизация насыщенности : 4:2:0
Битовая глубина : 8 бит
Тип развёртки : Прогрессивная
Бит/(Пиксели*Кадры) : 0.135
Размер потока : 1,12 Гбайт (77%)
Библиотека кодирования : x264 core 130 r2273 b3065e6
Настройки программы : cabac=1 / ref=10 / deblock=1:-1:-1 / analyse=0x3:0x2 / me=umh / subme=11 / psy=1 / psy_rd=1.04:0.02 / mixed_ref=1 / me_range=48 / chroma_me=1 / trellis=2 / 8x8dct=1 / cqm=0 / deadzone=21,11 / fast_pskip=0 / chroma_qp_offset=-3 / threads=8 / lookahead_threads=1 / sliced_threads=0 / nr=0 / decimate=1 / interlaced=0 / bluray_compat=0 / constrained_intra=0 / bframes=6 / b_pyramid=2 / b_adapt=2 / b_bias=0 / direct=3 / weightb=1 / open_gop=0 / weightp=2 / keyint=250 / keyint_min=25 / scenecut=40 / intra_refresh=0 / rc_lookahead=50 / rc=2pass / mbtree=1 / bitrate=1436 / ratetol=1.0 / qcomp=0.60 / qpmin=10 / qpmax=69 / qpstep=4 / cplxblur=20.0 / qblur=0.5 / ip_ratio=1.40 / aq=1:1.00
Default : Да
Forced : Нет

Аудио
Идентификатор : 2
Формат : AC-3
Формат/Информация : Audio Coding 3
Расширение режима : CM (complete main)
Параметр Endianness формата : Big
Идентификатор кодека : A_AC3
Продолжительность : 1 ч. 54 м.
Вид битрейта : Постоянный
Битрейт : 384 Кбит/сек
Каналы : 6 каналов
Расположение каналов : Front: L C R, Side: L R, LFE
Частота : 48,0 КГц
Битовая глубина : 16 бит
Метод сжатия : С потерями
Размер потока : 314 Мбайт (21%)
Заголовок : Дублированный | Мост Видео
Язык : Russian
Default : Да
Forced : Нет

Текст #1
Идентификатор : 3
Формат : UTF-8
Идентификатор кодека : S_TEXT/UTF8
Идентификатор кодека/Информация : UTF-8 Plain Text
Язык : Russian
Default : Да
Forced : Нет

Текст #2
Идентификатор : 4
Формат : UTF-8
Идентификатор кодека : S_TEXT/UTF8
Идентификатор кодека/Информация : UTF-8 Plain Text
Язык : English
Default : Нет
Forced : Нет



Скачать Город.ангелов.City.of.Angels.(Брэд.Силберлинг).[1998.фэнтези.драма.мелодрама.BDRip-AVC].[Dub]+[Sub]x2.torrent без регистрации
Золото ЗОЛОТАЯ РАЗДАЧА! СКАЧАННОЕ НЕ ЗАСЧИТЫВАЕТСЯ! Золото
Дата: Зарегистрирован   [ Тип: внутренний ] Как тут cкачать?
MAGNET ссылка
MAGNET ссылка


Скачать .torrent

15 KB

Статус: проверено DHT
Скачан: торрент - 133 раз, раздача полностью - 85 раз
Размер: 1,45 GB
Оценка:  5 (Голосов: 1)
Поблагодарили: 3
Поделиться ссылкой на эту раздачу с друзьями:
В контактеFacebookОдноклассникиTwitterLivejournalМой МирLiveinternet
 

 
Показать сообщения:    


Вы не можете начинать темы
Вы не можете отвечать на сообщения
Вы не можете редактировать свои сообщения
Вы не можете удалять свои сообщения
Вы не можете голосовать в опросах
Вы не можете прикреплять файлы к сообщениям
Вы можете скачивать файлы