Loading...
Error

Скачать Бэтмен: Начало / Batman Begins (Кристофер Нолан) [2005, боевик, триллер, драма, криминал, фэнтези, комикс, супергерой, BDRip-AVC] [Dub]+[MVO]+[AVO]x2+[Оригинал]+[Sub]x2 торрент без регистрации

 
Статистика раздачи
Размер:  3,36 GB   |    Скачан:  189 раз

Полного источника не было: 26 минут

 
Автор Сообщение

Marsianka

[] 

Информация о фильме
Название: Бэтмен: Начало
Оригинальное название: Batman Begins
Год выхода: 205
Жанр: боевик, триллер, драма, криминал, фэнтези, комикс, супергерой
Режиссер: Кристофер Нолан
В ролях: Кристиан Бэйл, Лиам Нисон, Майкл Кейн, Кэти Холмс, Гари Олдман, Морган Фримен, Киллиан Мёрфи, Том Уилкинсон, Рутгер Хауэр, Кен Ватанабе, Марк Бун Джуниор, Лайнас Роуч, Ларри Холден, Колин МакФарлэйн

О фильме:
История о происхождении легенды Брюса Уэйна, юного наследника огромного состояния, потерявшего своих родителей. Покинув родной Готэм, он отправляется в путешествие по миру. Многочисленные преграды и лишения закаляют его характер, а мудрый наставник помогает вновь обрести смысл жизни. Легендарный герой, защитник слабых и борец с несправедливостью преображается у тебя на глазах. Вернувшись в Готэм, Бэтмен становится единственной преградой на пути у сил зла, готовых ввергнуть город во мрак беззакония



Страна: США, DC Comics, Legendary Pictures, Patalex Productions, Warner Bros. Pictures Co.
Продолжительность: 02:20:02
Перевод: Дублированный, профессиональный многоголосый, авторский
Субтитры: Русские, английские
Дата релиза: 08.02.2014

Файл
Кодек: H.264
Качество: BDRip (AVC)
Видео: MPEG-4 AVC, 1400 Кбит/с, 1024x428
Звук:
Аудио 1: Русский (AC3, 6 ch, 448 Кбит/с) - Дублированный
Аудио 2: Русский (AC3, 6 ch, 384 Кбит/с) - Профессиональный многоголосый (Киномания)
Аудио 3: Русский (AC3, 6 ch, 448 Кбит/с) - Авторский одноголосый (Королев)
Аудио 4: Русский (AC3, 6 ch, 384 Кбит/с) - Авторский одноголосый (Гаврилов)
Аудио 5: Английский (AC3, 6 ch, 448 Кбит/с)
Общее
Уникальный идентификатор : 189142872296105297058070858056304487450 (0x8E4B97974A2B77BC9625647358C8EC1A)
Полное имя : D:фильмыBetmen.Nachalo.2005.x264.BDRip.(AVC).ExKinoRay.mkv
Формат : Matroska
Размер файла : 3,36 Гбайт
Продолжительность : 2 ч. 20 м.
Общий поток : 3432 Кбит/сек
Название фильма : Betmen.Nachalo.2005.x264.BDRip.(AVC).ExKinoRay
Дата кодирования : UTC 2014-02-08 16:21:52
Программа кодирования : mkvmerge v4.0.0 ('The Stars were mine') сборка от Jun 6 2010 16:18:42
Библиотека кодирования : libebml v1.0.0 + libmatroska v1.0.0

Видео
Идентификатор : 1
Формат : AVC
Формат/Информация : Advanced Video Codec
Профиль формата : High@L4.1
Параметр CABAC формата : Да
Параметр ReFrames формата : 8 кадров
Параметры GOP формата : M=9, N=43
Идентификатор кодека : V_MPEG4/ISO/AVC
Продолжительность : 2 ч. 20 м.
Битрейт : 1252 Кбит/сек
Номинальный битрейт : 1400 Кбит/сек
Ширина : 1024 пикс.
Высота : 428 пикс.
Соотношение сторон : 2,35:1
Частота кадров : 23,976 кадр/сек
Цветовое пространство : YUV
Подвыборка цветности : 4:2:0
Битовая глубина : 8 бит
Тип развёртки : Прогрессивная
Бит/(Пиксели*Кадры) : 0.119
Размер потока : 1,22 Гбайт (36%)
Заголовок : Rip by Enigma-Vladislav71
Библиотека кодирования : x264 core 129 r2245 bc13772
Настройки программы : cabac=1 / ref=8 / deblock=1:-2:-2 / analyse=0x3:0x133 / me=umh / subme=11 / psy=1 / psy_rd=1.00:0.00 / mixed_ref=1 / me_range=48 / chroma_me=1 / trellis=2 / 8x8dct=1 / cqm=0 / deadzone=21,11 / fast_pskip=0 / chroma_qp_offset=-2 / threads=3 / lookahead_threads=1 / sliced_threads=0 / nr=0 / decimate=0 / interlaced=0 / bluray_compat=0 / constrained_intra=0 / bframes=8 / b_pyramid=2 / b_adapt=2 / b_bias=0 / direct=3 / weightb=1 / open_gop=0 / weightp=2 / keyint=240 / keyint_min=23 / scenecut=40 / intra_refresh=0 / rc=2pass / mbtree=0 / bitrate=1400 / ratetol=1.0 / qcomp=0.60 / qpmin=10 / qpmax=51 / qpstep=4 / cplxblur=20.0 / qblur=0.5 / ip_ratio=1.40 / pb_ratio=1.30 / aq=2:1.00
Язык : English

Аудио #1
Идентификатор : 2
Формат : AC-3
Формат/Информация : Audio Coding 3
Расширение режима : CM (complete main)
Идентификатор кодека : A_AC3
Продолжительность : 2 ч. 20 м.
Вид битрейта : Постоянный
Битрейт : 448 Кбит/сек
Каналы : 6 каналов
Расположение каналов : Front: L C R, Side: L R, LFE
Частота : 48,0 КГц
Битовая глубина : 16 бит
Метод сжатия : С потерями
Размер потока : 449 Мбайт (13%)
Заголовок : Дубляж
Язык : Russian

Аудио #2
Идентификатор : 3
Формат : AC-3
Формат/Информация : Audio Coding 3
Расширение режима : CM (complete main)
Идентификатор кодека : A_AC3
Продолжительность : 2 ч. 20 м.
Вид битрейта : Постоянный
Битрейт : 384 Кбит/сек
Каналы : 6 каналов
Расположение каналов : Front: L C R, Side: L R, LFE
Частота : 48,0 КГц
Битовая глубина : 16 бит
Метод сжатия : С потерями
Размер потока : 385 Мбайт (11%)
Заголовок : Многоголосый закадровый, Киномания
Язык : Russian

Аудио #3
Идентификатор : 4
Формат : AC-3
Формат/Информация : Audio Coding 3
Расширение режима : CM (complete main)
Идентификатор кодека : A_AC3
Продолжительность : 2 ч. 20 м.
Вид битрейта : Постоянный
Битрейт : 448 Кбит/сек
Каналы : 6 каналов
Расположение каналов : Front: L C R, Side: L R, LFE
Частота : 48,0 КГц
Битовая глубина : 16 бит
Метод сжатия : С потерями
Размер потока : 449 Мбайт (13%)
Заголовок : Одноголосый закадровый, Королев
Язык : Russian

Аудио #4
Идентификатор : 5
Формат : AC-3
Формат/Информация : Audio Coding 3
Расширение режима : CM (complete main)
Идентификатор кодека : A_AC3
Продолжительность : 2 ч. 20 м.
Вид битрейта : Постоянный
Битрейт : 384 Кбит/сек
Каналы : 6 каналов
Расположение каналов : Front: L C R, Side: L R, LFE
Частота : 48,0 КГц
Битовая глубина : 16 бит
Метод сжатия : С потерями
Размер потока : 385 Мбайт (11%)
Заголовок : Одноголосый закадровый, Гаврилов
Язык : Russian

Аудио #5
Идентификатор : 6
Формат : AC-3
Формат/Информация : Audio Coding 3
Расширение режима : CM (complete main)
Идентификатор кодека : A_AC3
Продолжительность : 2 ч. 20 м.
Вид битрейта : Постоянный
Битрейт : 448 Кбит/сек
Каналы : 6 каналов
Расположение каналов : Front: L C R, Side: L R, LFE
Частота : 48,0 КГц
Битовая глубина : 16 бит
Метод сжатия : С потерями
Размер потока : 449 Мбайт (13%)
Заголовок : английский
Язык : English

Текст #1
Идентификатор : 7
Формат : UTF-8
Идентификатор кодека : S_TEXT/UTF8
Идентификатор кодека/Информация : UTF-8 Plain Text
Язык : Russian

Текст #2
Идентификатор : 8
Формат : UTF-8
Идентификатор кодека : S_TEXT/UTF8
Идентификатор кодека/Информация : UTF-8 Plain Text
Язык : English

Меню
00:00:00.000 : en:Chapter 01
00:03:39.219 : en:Chapter 02
00:07:31.117 : en:Chapter 03
00:11:34.026 : en:Chapter 04
00:16:15.641 : en:Chapter 05
00:19:44.349 : en:Chapter 06
00:24:19.291 : en:Chapter 07
00:28:24.703 : en:Chapter 08
00:31:25.383 : en:Chapter 09
00:35:53.818 : en:Chapter 10
00:38:24.635 : en:Chapter 11
00:41:14.638 : en:Chapter 12
00:43:08.252 : en:Chapter 13
00:46:57.981 : en:Chapter 14
00:49:43.981 : en:Chapter 15
00:53:26.203 : en:Chapter 16
00:55:55.018 : en:Chapter 17
00:58:02.145 : en:Chapter 18
01:03:31.808 : en:Chapter 19
01:05:53.115 : en:Chapter 20
01:08:38.781 : en:Chapter 21
01:11:25.781 : en:Chapter 22
01:13:19.561 : en:Chapter 23
01:16:16.238 : en:Chapter 24
01:19:50.285 : en:Chapter 25
01:23:54.362 : en:Chapter 26
01:29:02.670 : en:Chapter 27
01:32:36.717 : en:Chapter 28
01:37:49.029 : en:Chapter 29
01:40:33.694 : en:Chapter 30
01:45:08.969 : en:Chapter 31
01:49:32.065 : en:Chapter 32
01:51:29.182 : en:Chapter 33
01:54:49.048 : en:Chapter 34
01:58:11.084 : en:Chapter 35
02:01:54.974 : en:Chapter 36
02:05:01.160 : en:Chapter 37
02:06:06.892 : en:Chapter 38
02:09:18.417 : en:Chapter 39
02:10:57.015 : en:Chapter 40
02:20:02.811 : en:Chapter 41
Релиз от:

Авторы релиза:



Скачать Бэтмен.Начало.Batman.Begins.(Кристофер.Нолан).[2005.боевик.триллер.драма.криминал.фэнтези.комикс.супергерой.BDRip-AVC].[Dub]+[MVO]+[AVO]x2+[Оригинал]+[Sub]x2.torrent без регистрации
Золото ЗОЛОТАЯ РАЗДАЧА! СКАЧАННОЕ НЕ ЗАСЧИТЫВАЕТСЯ! Золото
Дата: Зарегистрирован   [ Тип: внутренний ] Как тут cкачать?
MAGNET ссылка
MAGNET ссылка


Скачать .torrent

17 KB

Статус: проверено DHT
Скачан: торрент - 189 раз, раздача полностью - 147 раз
Размер: 3,36 GB
Оценка:  - (Голосов: 0)
Поблагодарили: 1
Поделиться ссылкой на эту раздачу с друзьями:
В контактеFacebookОдноклассникиTwitterLivejournalМой МирLiveinternet
 

 
Показать сообщения:    


Вы не можете начинать темы
Вы не можете отвечать на сообщения
Вы не можете редактировать свои сообщения
Вы не можете удалять свои сообщения
Вы не можете голосовать в опросах
Вы не можете прикреплять файлы к сообщениям
Вы можете скачивать файлы