Loading...
Error

Скачать Санторини / Santorini Blue (Мэттью Д. Панепинто) [2009, драма, комедия, HDTVRip-AVC] [DVO](НТВ+) торрент без регистрации

 
Статистика раздачи
Размер:  2,08 GB   |    Скачан:  132 раза
Сидов:  1  [  0 KB/s  ]  
 
Автор Сообщение

Marsianka

[] 

Информация о фильме
Название: Санторини
Оригинальное название: Santorini Blue
Год выхода: 2009
Жанр: драма, комедия
Режиссер: Мэттью Д. Панепинто
В ролях: Дирдри Лорен, Ричард Белзер, Дэнн Флорек, Айс-Ти, Кларк Джонсон, Тейлор Негрон, Николь Остин, Дайан Нил, Том Арчдекон, Гвендолин Бэйли, Джон Финнегэн, Б. Смит, Стивен Скотт, Эрика Вудс, Мишель Бернард, Чарли Хейдт, Джорджия Рид, Тимоти Д. Клейн, Натали Карон, Кристофер Блум, Нина Рошелль, Йос Лэниадо, Дэвид Асаванонд

О фильме:
Феликс и Александра были счастливы, но предательство положило конец их союзу. Возродится ли их любовь? Этого не случилось в Нью-Йорке, но на прекрасном греческом острове Санторини всё может быть иначе



Страна: США
Студия: Thira Films
Продолжительность: 01:38:56
Перевод: Профессиональный двухголосый (НТВ+)

Файл
Кодек: MPEG-4 AVC
Качество: HDTVRip (AVC)
Видео: 2750 Кбит/с, 1024x576, 25.000 кадр/с
Звук: Русский (АС3, 2 ch, 256 Кбит/с)

Семпл
Общее
Полное имя : Santorini.2009.x264.HDTVRip(AVC).MediaClub.mkv
Формат : Matroska
Версия формата : Version 2
Размер файла : 2,08 Гбайт
Продолжительность : 1 ч. 38 м.
Общий поток : 3006 Кбит/сек
Дата кодирования : UTC 2014-02-09 17:08:22
Программа кодирования : mkvmerge v5.4.0 ('Piper') built on Mar 10 2012 13:34:39
Библиотека кодирования : libebml v1.2.3 + libmatroska v1.3.0

Видео
Идентификатор : 1
Формат : AVC
Формат/Информация : Advanced Video Codec
Профиль формата : High@L4.1
Параметр CABAC формата : Да
Параметр ReFrames формата : 9 кадров
Идентификатор кодека : V_MPEG4/ISO/AVC
Продолжительность : 1 ч. 38 м.
Битрейт : 2750 Кбит/сек
Ширина : 1024 пикселя
Высота : 576 пикселей
Соотношение сторон : 16:9
Режим частоты кадров : Постоянный
Частота кадров : 25,000 кадров/сек
Цветовое пространство : YUV
Субдискретизация насыщенности : 4:2:0
Битовая глубина : 8 бит
Тип развёртки : Прогрессивная
Бит/(Пиксели*Кадры) : 0.186
Размер потока : 1,86 Гбайт (89%)
Библиотека кодирования : x264 core 125 r2208 d9d2288
Настройки программы : cabac=1 / ref=9 / deblock=1:-2:-2 / analyse=0x3:0x133 / me=umh / subme=10 / psy=1 / psy_rd=1.00:0.15 / mixed_ref=1 / me_range=32 / chroma_me=1 / trellis=2 / 8x8dct=1 / cqm=0 / deadzone=21,11 / fast_pskip=0 / chroma_qp_offset=-3 / threads=6 / lookahead_threads=1 / sliced_threads=0 / nr=0 / decimate=0 / interlaced=0 / bluray_compat=0 / constrained_intra=0 / bframes=8 / b_pyramid=2 / b_adapt=2 / b_bias=0 / direct=3 / weightb=1 / open_gop=0 / weightp=2 / keyint=250 / keyint_min=25 / scenecut=40 / intra_refresh=0 / rc=2pass / mbtree=0 / bitrate=2750 / ratetol=1.0 / qcomp=0.60 / qpmin=0 / qpmax=69 / qpstep=4 / cplxblur=20.0 / qblur=0.5 / ip_ratio=1.40 / pb_ratio=1.30 / aq=1:0.80
Default : Да
Forced : Нет

Аудио
Идентификатор : 2
Формат : AC-3
Формат/Информация : Audio Coding 3
Расширение режима : CM (complete main)
Параметр Endianness формата : Big
Идентификатор кодека : A_AC3
Продолжительность : 1 ч. 38 м.
Вид битрейта : Постоянный
Битрейт : 256 Кбит/сек
Каналы : 2 канала
Расположение каналов : Front: L R
Частота : 48,0 КГц
Битовая глубина : 16 бит
Метод сжатия : С потерями
Размер потока : 181 Мбайт (9%)
Язык : Russian
Default : Да
Forced : Нет
Релиз от:



Скачать Санторини.Santorini.Blue.(Мэттью.Д.Панепинто).[2009.драма.комедия.HDTVRip-AVC].[DVO](НТВ+).torrent без регистрации
Золото ЗОЛОТАЯ РАЗДАЧА! СКАЧАННОЕ НЕ ЗАСЧИТЫВАЕТСЯ! Золото
Дата: Зарегистрирован   [ Тип: внутренний ] Как тут cкачать?
MAGNET ссылка
MAGNET ссылка


Скачать .torrent

11 KB

Статус: проверено DHT
Скачан: торрент - 132 раз, раздача полностью - 2 раз
Размер: 2,08 GB
Оценка:  - (Голосов: 0)
Поблагодарили: 0
Поделиться ссылкой на эту раздачу с друзьями:
В контактеFacebookОдноклассникиTwitterLivejournalМой МирLiveinternet
 

 
Показать сообщения:    


Вы не можете начинать темы
Вы не можете отвечать на сообщения
Вы не можете редактировать свои сообщения
Вы не можете удалять свои сообщения
Вы не можете голосовать в опросах
Вы не можете прикреплять файлы к сообщениям
Вы можете скачивать файлы