Loading...
Error

Скачать Ледяное сердце / Un coeur en hiver (Клод Соте) [1992, эстетская мелодрама, DVDRip-AVC] [MVO]+[Sub] торрент без регистрации

 
Статистика раздачи
Размер:  2,18 GB   |    Скачан:  106 раз

Полного источника не было: 23 минуты

 
Автор Сообщение

Marsianka

[] 

Информация о фильме
Название: Ледяное сердце
Оригинальное название: Un coeur en hiver
Год выхода: 1992
Жанр: эстетская мелодрама
Режиссер: Клод Соте (Claude Sautet)
В ролях: Даниэль Отёй (Daniel Auteuil), Эмманюэль Беар (Emmanuelle Beart), Андре Дюссолье (Andre Dussollier), Элизабет Буржин (Elisabeth Bourgine), Брижит Катийон (Brigitte Catillon), Мириам Буайе (Myriam Boyer), Станислас Карре де Мальбер (Stanislas Carre de Malberg), Доминик де Вилльенкур (Dominique de Williencourt), Жан-Люк Бидо (Jean-Luc Bideau), Морис Гаррель (Maurice Garrel)

О фильме:
Стефан мастер по изготовлению, починке и настройке музыкальных инструментов, в особенности скрипок. Он работает в фирме своего друга Максима, с которым они знакомы уже многие годы. Однажды Максим сообщает Стефану, что он встретил настоящую любовь. Это довольно известная скрипачка Камилла, клиентка их фирмы. Поначалу она относится к Стефану как будто слегка неприязненно. Однако вскоре всё меняется



Страна: Франция
Студия: Film Par Film, Cinea, Orly Films
Продолжительность: 01:40:17.040
Перевод: Профессиональный (многоголосый, закадровый) R5 CP DigitaL

Файл
Кодек: h.264
Качество: DVDRip-AVC
Видео: 656x576 (1.618) @ 932x576 (анаморф), 25.000 fps, AVC, ~2219 Kbps, 0.235 bits/pixel
Русский, 48.0 KHz, AC3, 6 ch, 448 Kbps
Французский, 48.0 KHz, AC3, 6 ch, 448 Kbps
Субтитры: Русские, VobSub (R5)
Исходник R5 DVD9
бщее
Уникальный идентификатор : 188134216809053920014391108617200763669 (0x8D89550933595651B39CDE6FC8508315)
Полное имя : D:FilmsLedyanoye_serdtse.1992.DVDRip-AVC.mkv
Формат : Matroska
Версия формата : Version 4 / Version 2
Размер файла : 2,18 Гбайт
Продолжительность : 1 ч. 40 м.
Общий поток : 3117 Кбит/сек
Дата кодирования : UTC 2014-02-09 08:45:12
Программа кодирования : mkvmerge v6.7.0 ('Back to the Ground') 64bit built on Jan 8 2014 15:10:52
Библиотека кодирования : libebml v1.3.0 + libmatroska v1.4.1

Видео
Идентификатор : 1
Формат : AVC
Формат/Информация : Advanced Video Codec
Профиль формата : High@L4.1
Параметр CABAC формата : Да
Параметр ReFrames формата : 16 кадров
Идентификатор кодека : V_MPEG4/ISO/AVC
Продолжительность : 1 ч. 40 м.
Битрейт : 2219 Кбит/сек
Ширина : 656 пикселей
Высота : 576 пикселей
Соотношение сторон : 16:10
Соотношение сторон в оригинале : 16:10
Режим частоты кадров : Постоянный
Частота кадров : 25,000 кадров/сек
Цветовое пространство : YUV
Субдискретизация насыщенности : 4:2:0
Битовая глубина : 8 бит
Тип развёртки : Прогрессивная
Бит/(Пиксели*Кадры) : 0.235
Размер потока : 1,51 Гбайт (69%)
Библиотека кодирования : x264 core 138 r2358 9e941d1
Настройки программы : cabac=1 / ref=16 / deblock=1:0:0 / analyse=0x3:0x133 / me=umh / subme=10 / psy=1 / psy_rd=1.10:0.10 / mixed_ref=1 / me_range=32 / chroma_me=1 / trellis=2 / 8x8dct=1 / cqm=0 / deadzone=21,11 / fast_pskip=0 / chroma_qp_offset=-6 / threads=8 / lookahead_threads=2 / sliced_threads=0 / nr=0 / decimate=0 / interlaced=0 / bluray_compat=0 / constrained_intra=0 / bframes=11 / b_pyramid=2 / b_adapt=2 / b_bias=0 / direct=3 / weightb=1 / open_gop=0 / weightp=2 / keyint=250 / keyint_min=25 / scenecut=60 / intra_refresh=0 / rc_lookahead=60 / rc=2pass / mbtree=0 / bitrate=2219 / ratetol=1.0 / qcomp=0.60 / qpmin=0 / qpmax=69 / qpstep=4 / cplxblur=20.0 / qblur=0.5 / vbv_maxrate=50000 / vbv_bufsize=62500 / nal_hrd=none / ip_ratio=1.40 / pb_ratio=1.30 / aq=2:1.00
Default : Нет
Forced : Нет
Коэффициенты матрицы : BT.601

Аудио #1
Идентификатор : 2
Формат : AC-3
Формат/Информация : Audio Coding 3
Расширение режима : CM (complete main)
Параметр Endianness формата : Big
Идентификатор кодека : A_AC3
Продолжительность : 1 ч. 40 м.
Вид битрейта : Постоянный
Битрейт : 448 Кбит/сек
Каналы : 6 каналов
Расположение каналов : Front: L C R, Side: L R, LFE
Частота : 48,0 КГц
Битовая глубина : 16 бит
Метод сжатия : С потерями
Размер потока : 321 Мбайт (14%)
Язык : Russian
Default : Да
Forced : Нет

Аудио #2
Идентификатор : 3
Формат : AC-3
Формат/Информация : Audio Coding 3
Расширение режима : CM (complete main)
Параметр Endianness формата : Big
Идентификатор кодека : A_AC3
Продолжительность : 1 ч. 40 м.
Вид битрейта : Постоянный
Битрейт : 448 Кбит/сек
Каналы : 6 каналов
Расположение каналов : Front: L C R, Side: L R, LFE
Частота : 48,0 КГц
Битовая глубина : 16 бит
Метод сжатия : С потерями
Размер потока : 321 Мбайт (14%)
Язык : French
Default : Нет
Forced : Нет

Текст
Идентификатор : 4
Формат : VobSub
Режим смешивания : zlib
Идентификатор кодека : S_VOBSUB
Идентификатор кодека/Информация : The same subtitle format used on DVDs
Язык : Russian
Default : Нет
Forced : Нет

Меню
00:00:00.000 : en:Chapter 01
00:06:10.000 : en:Chapter 02
00:14:07.080 : en:Chapter 03
00:27:36.200 : en:Chapter 04
00:38:05.920 : en:Chapter 05
00:48:31.480 : en:Chapter 06
00:56:44.440 : en:Chapter 07
01:04:21.000 : en:Chapter 08
01:13:54.040 : en:Chapter 09
01:19:54.920 : en:Chapter 10
01:27:59.040 : en:Chapter 11
01:35:34.040 : en:Chapter 12
Релиз от: Temperest



Скачать Ледяное.сердце.Un.coeur.en.hiver.(Клод.Соте).[1992.эстетская.мелодрама.DVDRip-AVC].[MVO]+[Sub].torrent без регистрации
Золото ЗОЛОТАЯ РАЗДАЧА! СКАЧАННОЕ НЕ ЗАСЧИТЫВАЕТСЯ! Золото
Дата: Зарегистрирован   [ Тип: внутренний ] Как тут cкачать?
MAGNET ссылка
MAGNET ссылка


Скачать .torrent

12 KB

Статус: проверено DHT
Скачан: торрент - 106 раз, раздача полностью - 0 раз
Размер: 2,18 GB
Оценка:  - (Голосов: 0)
Поблагодарили: 1
Поделиться ссылкой на эту раздачу с друзьями:
В контактеFacebookОдноклассникиTwitterLivejournalМой МирLiveinternet
 

 
Показать сообщения:    


Вы не можете начинать темы
Вы не можете отвечать на сообщения
Вы не можете редактировать свои сообщения
Вы не можете удалять свои сообщения
Вы не можете голосовать в опросах
Вы не можете прикреплять файлы к сообщениям
Вы можете скачивать файлы